<?xml version="1.0" standalone="no"?>
<!DOCTYPE svg PUBLIC "-//W3C//DTD SVG 1.1//EN" "http://www.w3.org/Graphics/SVG/1.1/DTD/svg11.dtd" >
<svg xmlns="http://www.w3.org/2000/svg" xmlns:xlink="http://www.w3.org/1999/xlink" version="1.1">
<metadata>
Created by FontForge 20190801 at Tue Oct 15 15:58:09 2019
 By root
Copyright 2014-2017 Indian Type Foundry (info@indiantypefoundry.com) with Reserved Font Name 'Poppins'. Copyright 2019 Google LLC.
</metadata>
<defs>
<font id="DMSans-Medium" horiz-adv-x="0" >
  <font-face 
    font-family="DM Sans Medium"
    font-weight="500"
    font-stretch="normal"
    units-per-em="1000"
    panose-1="0 0 0 0 0 0 0 0 0 0"
    ascent="800"
    descent="-200"
    x-height="496"
    cap-height="700"
    bbox="-60 -263 1145 971"
    underline-thickness="50"
    underline-position="-125"
    unicode-range="U+000D-FB02"
  />
<missing-glyph horiz-adv-x="543" 
d="M71 0v700h401v-700h-401zM141 57h261v586h-261v-586z" />
    <glyph glyph-name="fi" unicode="fi" horiz-adv-x="586" 
d="M92 0v407h-71v89h71v72q0 81 40.5 116.5t114.5 35.5h52v-90h-36q-35 0 -50 -14.5t-15 -48.5v-71h314v-496h-106v407h-208v-407h-106zM460 579q-30 0 -49.5 18.5t-19.5 47.5q0 28 19.5 46t49.5 18t49.5 -18t19.5 -46q0 -29 -19.5 -47.5t-49.5 -18.5z" />
    <glyph glyph-name="fl" unicode="fl" horiz-adv-x="587" 
d="M92 0v407h-71v89h71v72q0 81 40.5 116.5t114.5 35.5h52v-90h-36q-35 0 -50 -14.5t-15 -48.5v-71h114v-89h-114v-407h-106zM413 0v720h106v-720h-106z" />
    <glyph glyph-name=".notdef" horiz-adv-x="543" 
d="M71 0v700h401v-700h-401zM141 57h261v586h-261v-586z" />
    <glyph glyph-name="A" unicode="A" horiz-adv-x="683" 
d="M26 0l258 700h116l256 -700h-112l-60 171h-286l-60 -171h-112zM228 255h226l-113 319z" />
    <glyph glyph-name="Aacute" unicode="&#xc1;" horiz-adv-x="683" 
d="M26 0l258 700h116l256 -700h-112l-60 171h-286l-60 -171h-112zM228 255h226l-113 319zM295 741v76l218 124v-88z" />
    <glyph glyph-name="Abreve" unicode="&#x102;" horiz-adv-x="683" 
d="M26 0l258 700h116l256 -700h-112l-60 171h-286l-60 -171h-112zM228 255h226l-113 319zM341 753q-70 0 -108.5 39.5t-38.5 101.5v15h59q0 -36 20 -55.5t68 -19.5q49 0 69 19.5t20 55.5h60v-15q0 -63 -39 -102t-110 -39z" />
    <glyph glyph-name="Acircumflex" unicode="&#xc2;" horiz-adv-x="683" 
d="M26 0l258 700h116l256 -700h-112l-60 171h-286l-60 -171h-112zM228 255h226l-113 319zM200 751v79l141 81l142 -81v-79l-142 83z" />
    <glyph glyph-name="Adieresis" unicode="&#xc4;" horiz-adv-x="683" 
d="M26 0l258 700h116l256 -700h-112l-60 171h-286l-60 -171h-112zM228 255h226l-113 319zM427 772q-23 0 -39.5 16t-16.5 39q0 24 16.5 40t39.5 16t39 -16t16 -40q0 -23 -16 -39t-39 -16zM257 772q-24 0 -40 16t-16 39q0 24 16 40t40 16q23 0 39.5 -16t16.5 -40
q0 -23 -16.5 -39t-39.5 -16z" />
    <glyph glyph-name="Agrave" unicode="&#xc0;" horiz-adv-x="683" 
d="M26 0l258 700h116l256 -700h-112l-60 171h-286l-60 -171h-112zM228 255h226l-113 319zM389 741l-218 112v88l218 -124v-76z" />
    <glyph glyph-name="Amacron" unicode="&#x100;" horiz-adv-x="683" 
d="M26 0l258 700h116l256 -700h-112l-60 171h-286l-60 -171h-112zM228 255h226l-113 319zM161 789v77h361v-77h-361z" />
    <glyph glyph-name="Aogonek" unicode="&#x104;" horiz-adv-x="688" 
d="M26 0l258 700h116l256 -700l-54 -27q-38 -17 -51 -34t-13 -35q0 -22 15 -34t40 -12q31 0 68 15v-66q-18 -6 -39 -10t-42 -4q-50 0 -87.5 23.5t-37.5 77.5q0 32 19 61t66 56l-56 160h-286l-60 -171h-112zM228 255h226l-113 319z" />
    <glyph glyph-name="Aring" unicode="&#xc5;" horiz-adv-x="683" 
d="M26 0l258 700h116l256 -700h-112l-60 171h-286l-60 -171h-112zM228 255h226l-113 319zM342 756q-44 0 -76.5 28.5t-32.5 78.5t32.5 79t76.5 29q46 0 78 -29t32 -79t-32 -78.5t-78 -28.5zM342 807q23 0 39 15.5t16 40.5q0 27 -16 42t-39 15q-22 0 -38 -15t-16 -42
q0 -25 16 -40.5t38 -15.5z" />
    <glyph glyph-name="Atilde" unicode="&#xc3;" horiz-adv-x="683" 
d="M26 0l258 700h116l256 -700h-112l-60 171h-286l-60 -171h-112zM228 255h226l-113 319zM406 754q-28 0 -46.5 11.5t-35 23t-37.5 11.5q-36 0 -42 -45h-59q8 58 36 85.5t70 27.5q27 0 46 -11.5t35.5 -23t37.5 -11.5q16 0 28 11t15 34h59q-8 -57 -36.5 -85t-70.5 -28z" />
    <glyph glyph-name="AE" unicode="&#xc6;" horiz-adv-x="925" 
d="M26 0l390 700h454v-84h-280v-221h250v-82h-250v-229h280v-84h-386v149h-260l-82 -149h-116zM484 616l-214 -385h214v385z" />
    <glyph glyph-name="AEacute" unicode="&#x1fc;" horiz-adv-x="925" 
d="M26 0l390 700h454v-84h-280v-221h250v-82h-250v-229h280v-84h-386v149h-260l-82 -149h-116zM484 616l-214 -385h214v385zM524 741v76l218 124v-88z" />
    <glyph glyph-name="B" unicode="B" horiz-adv-x="617" 
d="M71 0v700h264q109 0 165 -51t56 -128q0 -67 -36 -106.5t-87 -53.5q40 -8 71.5 -32t49.5 -60t18 -78q0 -54 -26.5 -97.5t-77.5 -68.5t-125 -25h-272zM177 400h145q61 0 93 28.5t32 78.5q0 49 -31.5 78t-95.5 29h-143v-214zM177 87h152q64 0 99.5 30t35.5 84t-37 85.5
t-100 31.5h-150v-231z" />
    <glyph glyph-name="C" unicode="C" horiz-adv-x="729" 
d="M383 -12q-104 0 -179.5 45.5t-116.5 127t-41 188.5q0 108 41 189.5t116.5 127.5t179.5 46q123 0 201 -60t99 -168h-118q-14 61 -60 97t-123 36q-105 0 -166 -71.5t-61 -196.5q0 -124 61 -195t166 -71q77 0 123 34t60 93h118q-21 -104 -99 -163t-201 -59z" />
    <glyph glyph-name="Cacute" unicode="&#x106;" horiz-adv-x="729" 
d="M383 -12q-104 0 -179.5 45.5t-116.5 127t-41 188.5q0 108 41 189.5t116.5 127.5t179.5 46q123 0 201 -60t99 -168h-118q-14 61 -60 97t-123 36q-105 0 -166 -71.5t-61 -196.5q0 -124 61 -195t166 -71q77 0 123 34t60 93h118q-21 -104 -99 -163t-201 -59zM337 741v76
l218 124v-88z" />
    <glyph glyph-name="Ccaron" unicode="&#x10c;" horiz-adv-x="729" 
d="M383 -12q-104 0 -179.5 45.5t-116.5 127t-41 188.5q0 108 41 189.5t116.5 127.5t179.5 46q123 0 201 -60t99 -168h-118q-14 61 -60 97t-123 36q-105 0 -166 -71.5t-61 -196.5q0 -124 61 -195t166 -71q77 0 123 34t60 93h118q-21 -104 -99 -163t-201 -59zM383 750l-141 81
v78l141 -84l142 84v-78z" />
    <glyph glyph-name="Ccedilla" unicode="&#xc7;" horiz-adv-x="729" 
d="M383 -12q-104 0 -179.5 45.5t-116.5 127t-41 188.5q0 108 41 189.5t116.5 127.5t179.5 46q123 0 201 -60t99 -168h-118q-14 61 -60 97t-123 36q-105 0 -166 -71.5t-61 -196.5q0 -124 61 -195t166 -71q77 0 123 34t60 93h118q-21 -104 -99 -163t-201 -59zM308 -262v64h102
q61 0 61 42q0 39 -61 39h-55v123h68v-63q54 1 91.5 -24t37.5 -77q0 -51 -36.5 -77.5t-88.5 -26.5h-119z" />
    <glyph glyph-name="Cdotaccent" unicode="&#x10a;" horiz-adv-x="729" 
d="M383 -12q-104 0 -179.5 45.5t-116.5 127t-41 188.5q0 108 41 189.5t116.5 127.5t179.5 46q123 0 201 -60t99 -168h-118q-14 61 -60 97t-123 36q-105 0 -166 -71.5t-61 -196.5q0 -124 61 -195t166 -71q77 0 123 34t60 93h118q-21 -104 -99 -163t-201 -59zM384 765
q-23 0 -39.5 16.5t-16.5 39.5t16.5 39.5t39.5 16.5t39.5 -16.5t16.5 -39.5t-16.5 -39.5t-39.5 -16.5z" />
    <glyph glyph-name="D" unicode="D" horiz-adv-x="703" 
d="M71 0v700h227q123 0 202.5 -43t118 -121.5t38.5 -186.5q0 -107 -38.5 -185.5t-118 -121t-202.5 -42.5h-227zM177 90h117q95 0 150.5 31t80 89t24.5 139t-24.5 140t-80 90.5t-150.5 31.5h-117v-521z" />
    <glyph glyph-name="Eth" unicode="&#xd0;" horiz-adv-x="721" 
d="M88 0v303h-81v93h81v304h227q123 0 202.5 -43t118 -121.5t38.5 -186.5q0 -107 -38.5 -185.5t-118 -121t-202.5 -42.5h-227zM194 90h117q95 0 151 31t80 89t24 139t-24 140t-80 90.5t-151 31.5h-117v-215h189v-93h-189v-213z" />
    <glyph glyph-name="Dcaron" unicode="&#x10e;" horiz-adv-x="703" 
d="M71 0v700h227q123 0 202.5 -43t118 -121.5t38.5 -186.5q0 -107 -38.5 -185.5t-118 -121t-202.5 -42.5h-227zM177 90h117q95 0 150.5 31t80 89t24.5 139t-24.5 140t-80 90.5t-150.5 31.5h-117v-521zM288 750l-141 81v78l141 -84l142 84v-78z" />
    <glyph glyph-name="Dcroat" unicode="&#x110;" horiz-adv-x="721" 
d="M88 0v303h-81v93h81v304h227q123 0 202.5 -43t118 -121.5t38.5 -186.5q0 -107 -38.5 -185.5t-118 -121t-202.5 -42.5h-227zM194 90h117q95 0 151 31t80 89t24 139t-24 140t-80 90.5t-151 31.5h-117v-215h189v-93h-189v-213z" />
    <glyph glyph-name="E" unicode="E" horiz-adv-x="571" 
d="M71 0v700h445v-86h-339v-218h309v-84h-309v-226h339v-86h-445z" />
    <glyph glyph-name="Eacute" unicode="&#xc9;" horiz-adv-x="571" 
d="M71 0v700h445v-86h-339v-218h309v-84h-309v-226h339v-86h-445zM250 741v76l218 124v-88z" />
    <glyph glyph-name="Ebreve" unicode="&#x114;" horiz-adv-x="571" 
d="M71 0v700h445v-86h-339v-218h309v-84h-309v-226h339v-86h-445zM297 753q-70 0 -108.5 39.5t-38.5 101.5v15h59q0 -36 20 -55.5t68 -19.5q49 0 69 19.5t20 55.5h60v-15q0 -63 -39 -102t-110 -39z" />
    <glyph glyph-name="Ecaron" unicode="&#x11a;" horiz-adv-x="571" 
d="M71 0v700h445v-86h-339v-218h309v-84h-309v-226h339v-86h-445zM297 750l-141 81v78l141 -84l142 84v-78z" />
    <glyph glyph-name="Ecircumflex" unicode="&#xca;" horiz-adv-x="571" 
d="M71 0v700h445v-86h-339v-218h309v-84h-309v-226h339v-86h-445zM156 751v79l141 81l142 -81v-79l-142 83z" />
    <glyph glyph-name="Edieresis" unicode="&#xcb;" horiz-adv-x="571" 
d="M71 0v700h445v-86h-339v-218h309v-84h-309v-226h339v-86h-445zM383 772q-23 0 -39.5 16t-16.5 39q0 24 16.5 40t39.5 16t39 -16t16 -40q0 -23 -16 -39t-39 -16zM213 772q-24 0 -40 16t-16 39q0 24 16 40t40 16q23 0 39.5 -16t16.5 -40q0 -23 -16.5 -39t-39.5 -16z" />
    <glyph glyph-name="Edotaccent" unicode="&#x116;" horiz-adv-x="571" 
d="M71 0v700h445v-86h-339v-218h309v-84h-309v-226h339v-86h-445zM297 765q-23 0 -39.5 16.5t-16.5 39.5t16.5 39.5t39.5 16.5t39.5 -16.5t16.5 -39.5t-16.5 -39.5t-39.5 -16.5z" />
    <glyph glyph-name="Egrave" unicode="&#xc8;" horiz-adv-x="571" 
d="M71 0v700h445v-86h-339v-218h309v-84h-309v-226h339v-86h-445zM345 741l-218 112v88l218 -124v-76z" />
    <glyph glyph-name="Emacron" unicode="&#x112;" horiz-adv-x="571" 
d="M71 0v700h445v-86h-339v-218h309v-84h-309v-226h339v-86h-445zM117 789v77h361v-77h-361z" />
    <glyph glyph-name="Eogonek" unicode="&#x118;" horiz-adv-x="571" 
d="M71 0v700h445v-86h-339v-218h309v-84h-309v-226h339v-86h-445zM438 -207q-49 0 -87 23.5t-38 76.5q0 38 28 71.5t100 65.5l49 22l25 -52l-55 -27q-35 -18 -49.5 -35t-14.5 -35q0 -21 15 -33t40 -12q32 0 69 15v-66q-18 -6 -39 -10t-43 -4z" />
    <glyph glyph-name="uni1EBC" unicode="&#x1ebc;" horiz-adv-x="571" 
d="M71 0v700h445v-86h-339v-218h309v-84h-309v-226h339v-86h-445zM361 754q-28 0 -46.5 11.5t-35 23t-37.5 11.5q-36 0 -42 -45h-59q8 58 36 85.5t70 27.5q27 0 46 -11.5t35.5 -23t37.5 -11.5q16 0 28 11t15 34h59q-8 -57 -36.5 -85t-70.5 -28z" />
    <glyph glyph-name="F" unicode="F" horiz-adv-x="543" 
d="M71 0v700h439v-86h-333v-221h276v-85h-276v-308h-106z" />
    <glyph glyph-name="G" unicode="G" horiz-adv-x="765" 
d="M375 -12q-99 0 -173 45t-115 126t-41 189q0 107 42 189t119.5 128.5t183.5 46.5q120 0 200 -58t104 -160h-120q-16 56 -63 88t-121 32q-110 0 -173 -71t-63 -196t62 -195t165 -70q104 0 156.5 59t61.5 157h-190v82h297v-380h-97l-9 103q-35 -55 -88 -85t-138 -30z" />
    <glyph glyph-name="Gbreve" unicode="&#x11e;" horiz-adv-x="765" 
d="M375 -12q-99 0 -173 45t-115 126t-41 189q0 107 42 189t119.5 128.5t183.5 46.5q120 0 200 -58t104 -160h-120q-16 56 -63 88t-121 32q-110 0 -173 -71t-63 -196t62 -195t165 -70q104 0 156.5 59t61.5 157h-190v82h297v-380h-97l-9 103q-35 -55 -88 -85t-138 -30z
M390 753q-70 0 -108.5 39.5t-38.5 101.5v15h59q0 -36 20 -55.5t68 -19.5q49 0 69 19.5t20 55.5h60v-15q0 -63 -39 -102t-110 -39z" />
    <glyph glyph-name="uni0122" unicode="&#x122;" horiz-adv-x="765" 
d="M375 -12q-99 0 -173 45t-115 126t-41 189q0 107 42 189t119.5 128.5t183.5 46.5q120 0 200 -58t104 -160h-120q-16 56 -63 88t-121 32q-110 0 -173 -71t-63 -196t62 -195t165 -70q104 0 156.5 59t61.5 157h-190v82h297v-380h-97l-9 103q-35 -55 -88 -85t-138 -30z
M341 -256v46q48 0 48 59v15h-50v88h98q12 -45 12 -85q0 -123 -108 -123z" />
    <glyph glyph-name="Gdotaccent" unicode="&#x120;" horiz-adv-x="765" 
d="M375 -12q-99 0 -173 45t-115 126t-41 189q0 107 42 189t119.5 128.5t183.5 46.5q120 0 200 -58t104 -160h-120q-16 56 -63 88t-121 32q-110 0 -173 -71t-63 -196t62 -195t165 -70q104 0 156.5 59t61.5 157h-190v82h297v-380h-97l-9 103q-35 -55 -88 -85t-138 -30z
M390 765q-23 0 -39.5 16.5t-16.5 39.5t16.5 39.5t39.5 16.5t39.5 -16.5t16.5 -39.5t-16.5 -39.5t-39.5 -16.5z" />
    <glyph glyph-name="H" unicode="H" horiz-adv-x="693" 
d="M71 0v700h106v-300h339v300h106v-700h-106v313h-339v-313h-106z" />
    <glyph glyph-name="I" unicode="I" horiz-adv-x="248" 
d="M71 0v700h106v-700h-106z" />
    <glyph glyph-name="Iacute" unicode="&#xcd;" horiz-adv-x="248" 
d="M71 0v700h106v-700h-106zM77 741v76l218 124v-88z" />
    <glyph glyph-name="Ibreve" unicode="&#x12c;" horiz-adv-x="248" 
d="M71 0v700h106v-700h-106zM124 753q-70 0 -108.5 39.5t-38.5 101.5v15h59q0 -36 20 -55.5t68 -19.5q49 0 69 19.5t20 55.5h60v-15q0 -63 -39 -102t-110 -39z" />
    <glyph glyph-name="Icircumflex" unicode="&#xce;" horiz-adv-x="248" 
d="M71 0v700h106v-700h-106zM-17 751v79l141 81l142 -81v-79l-142 83z" />
    <glyph glyph-name="Idieresis" unicode="&#xcf;" horiz-adv-x="248" 
d="M71 0v700h106v-700h-106zM210 772q-23 0 -39.5 16t-16.5 39q0 24 16.5 40t39.5 16t39 -16t16 -40q0 -23 -16 -39t-39 -16zM40 772q-24 0 -40 16t-16 39q0 24 16 40t40 16q23 0 39.5 -16t16.5 -40q0 -23 -16.5 -39t-39.5 -16z" />
    <glyph glyph-name="Idotaccent" unicode="&#x130;" horiz-adv-x="248" 
d="M71 0v700h106v-700h-106zM124 765q-23 0 -39.5 16.5t-16.5 39.5t16.5 39.5t39.5 16.5t39.5 -16.5t16.5 -39.5t-16.5 -39.5t-39.5 -16.5z" />
    <glyph glyph-name="Igrave" unicode="&#xcc;" horiz-adv-x="248" 
d="M71 0v700h106v-700h-106zM172 741l-218 112v88l218 -124v-76z" />
    <glyph glyph-name="Imacron" unicode="&#x12a;" horiz-adv-x="248" 
d="M71 0v700h106v-700h-106zM-57 789v77h361v-77h-361z" />
    <glyph glyph-name="Iogonek" unicode="&#x12e;" horiz-adv-x="248" 
d="M71 0v700h106v-700h-106zM100 -206q-49 0 -87 23.5t-38 76.5q0 38 28 71.5t100 65.5l49 22l25 -52l-55 -27q-35 -18 -49.5 -35t-14.5 -35q0 -21 15 -33t40 -12q32 0 69 15v-66q-18 -6 -39 -10t-43 -4z" />
    <glyph glyph-name="Itilde" unicode="&#x128;" horiz-adv-x="248" 
d="M71 0v700h106v-700h-106zM188 754q-28 0 -46.5 11.5t-35 23t-37.5 11.5q-36 0 -42 -45h-59q8 58 36 85.5t70 27.5q27 0 46 -11.5t35.5 -23t37.5 -11.5q16 0 28 11t15 34h59q-8 -57 -36.5 -85t-70.5 -28z" />
    <glyph glyph-name="J" unicode="J" horiz-adv-x="516" 
d="M240 -12q-98 0 -155.5 55t-57.5 155h106q0 -50 24.5 -83t80.5 -33q55 0 78 31.5t23 80.5v506h106v-506q0 -99 -55 -152.5t-150 -53.5z" />
    <glyph glyph-name="K" unicode="K" horiz-adv-x="611" 
d="M71 0v700h106v-300l276 300h131l-259 -279l265 -421h-129l-212 340l-72 -78v-262h-106z" />
    <glyph glyph-name="uni0136" unicode="&#x136;" horiz-adv-x="611" 
d="M71 0v700h106v-300l276 300h131l-259 -279l265 -421h-129l-212 340l-72 -78v-262h-106zM261 -256v46q48 0 48 59v15h-50v88h98q12 -45 12 -85q0 -123 -108 -123z" />
    <glyph glyph-name="L" unicode="L" horiz-adv-x="538" 
d="M71 0v700h106v-616h318v-84h-424z" />
    <glyph glyph-name="Lacute" unicode="&#x139;" horiz-adv-x="538" 
d="M71 0v700h106v-616h318v-84h-424zM84 741v76l218 124v-88z" />
    <glyph glyph-name="Lcaron" unicode="&#x13d;" horiz-adv-x="538" 
d="M295 483v46q48 0 48 57v21h-52v93h99q13 -53 13 -97q0 -120 -108 -120zM71 0v700h106v-616h318v-84h-424z" />
    <glyph glyph-name="uni013B" unicode="&#x13b;" horiz-adv-x="538" 
d="M71 0v700h106v-616h318v-84h-424zM202 -256v46q48 0 48 59v15h-49v88h97q6 -23 9.5 -44.5t3.5 -40.5q0 -123 -109 -123z" />
    <glyph glyph-name="Ldot" unicode="&#x13f;" horiz-adv-x="538" 
d="M71 0v700h106v-616h318v-84h-424zM367 284q-30 0 -49.5 19.5t-19.5 46.5q0 28 19.5 47.5t49.5 19.5t49 -19.5t19 -47.5q0 -27 -19 -46.5t-49 -19.5z" />
    <glyph glyph-name="Lslash" unicode="&#x141;" horiz-adv-x="563" 
d="M96 0v303l-76 -27v87l76 27v310h106v-272l113 40v-87l-113 -40v-257h318v-84h-424z" />
    <glyph glyph-name="M" unicode="M" horiz-adv-x="865" 
d="M71 0v700h125l237 -466l236 466h125v-700h-106v517l-214 -417h-82l-215 416v-516h-106z" />
    <glyph glyph-name="N" unicode="N" horiz-adv-x="705" 
d="M71 0v700h106l351 -527v527h106v-700h-106l-351 527v-527h-106z" />
    <glyph glyph-name="Nacute" unicode="&#x143;" horiz-adv-x="705" 
d="M71 0v700h106l351 -527v527h106v-700h-106l-351 527v-527h-106zM306 741v76l218 124v-88z" />
    <glyph glyph-name="Ncaron" unicode="&#x147;" horiz-adv-x="705" 
d="M71 0v700h106l351 -527v527h106v-700h-106l-351 527v-527h-106zM352 750l-141 81v78l141 -84l142 84v-78z" />
    <glyph glyph-name="uni0145" unicode="&#x145;" horiz-adv-x="705" 
d="M71 0v700h106l351 -527v527h106v-700h-106l-351 527v-527h-106zM311 -256v46q47 0 47 59v15h-49v88h97q6 -23 9.5 -44.5t3.5 -40.5q0 -123 -108 -123z" />
    <glyph glyph-name="Ntilde" unicode="&#xd1;" horiz-adv-x="705" 
d="M71 0v700h106l351 -527v527h106v-700h-106l-351 527v-527h-106zM417 754q-28 0 -46.5 11.5t-35 23t-37.5 11.5q-36 0 -42 -45h-59q8 58 36 85.5t70 27.5q27 0 46 -11.5t35.5 -23t37.5 -11.5q16 0 28 11t15 34h59q-8 -57 -36.5 -85t-70.5 -28z" />
    <glyph glyph-name="O" unicode="O" horiz-adv-x="788" 
d="M394 -12q-104 0 -182 46t-122 127.5t-44 188.5t44 188.5t122 127.5t182 46t182 -46t121.5 -127.5t43.5 -188.5t-43.5 -188.5t-121.5 -127.5t-182 -46zM394 83q72 0 125.5 32t83.5 92t30 143t-30 143t-83.5 92t-125.5 32t-126 -32t-83.5 -92t-29.5 -143t29.5 -143
t83.5 -92t126 -32z" />
    <glyph glyph-name="Oacute" unicode="&#xd3;" horiz-adv-x="788" 
d="M394 -12q-104 0 -182 46t-122 127.5t-44 188.5t44 188.5t122 127.5t182 46t182 -46t121.5 -127.5t43.5 -188.5t-43.5 -188.5t-121.5 -127.5t-182 -46zM394 83q72 0 125.5 32t83.5 92t30 143t-30 143t-83.5 92t-125.5 32t-126 -32t-83.5 -92t-29.5 -143t29.5 -143
t83.5 -92t126 -32zM347 741v76l218 124v-88z" />
    <glyph glyph-name="Obreve" unicode="&#x14e;" horiz-adv-x="788" 
d="M394 -12q-104 0 -182 46t-122 127.5t-44 188.5t44 188.5t122 127.5t182 46t182 -46t121.5 -127.5t43.5 -188.5t-43.5 -188.5t-121.5 -127.5t-182 -46zM394 83q72 0 125.5 32t83.5 92t30 143t-30 143t-83.5 92t-125.5 32t-126 -32t-83.5 -92t-29.5 -143t29.5 -143
t83.5 -92t126 -32zM394 753q-70 0 -108.5 39.5t-38.5 101.5v15h59q0 -36 20 -55.5t68 -19.5q49 0 69 19.5t20 55.5h60v-15q0 -63 -39 -102t-110 -39z" />
    <glyph glyph-name="Ocircumflex" unicode="&#xd4;" horiz-adv-x="788" 
d="M394 -12q-104 0 -182 46t-122 127.5t-44 188.5t44 188.5t122 127.5t182 46t182 -46t121.5 -127.5t43.5 -188.5t-43.5 -188.5t-121.5 -127.5t-182 -46zM394 83q72 0 125.5 32t83.5 92t30 143t-30 143t-83.5 92t-125.5 32t-126 -32t-83.5 -92t-29.5 -143t29.5 -143
t83.5 -92t126 -32zM253 751v79l141 81l142 -81v-79l-142 83z" />
    <glyph glyph-name="Odieresis" unicode="&#xd6;" horiz-adv-x="788" 
d="M394 -12q-104 0 -182 46t-122 127.5t-44 188.5t44 188.5t122 127.5t182 46t182 -46t121.5 -127.5t43.5 -188.5t-43.5 -188.5t-121.5 -127.5t-182 -46zM394 83q72 0 125.5 32t83.5 92t30 143t-30 143t-83.5 92t-125.5 32t-126 -32t-83.5 -92t-29.5 -143t29.5 -143
t83.5 -92t126 -32zM480 772q-23 0 -39.5 16t-16.5 39q0 24 16.5 40t39.5 16t39 -16t16 -40q0 -23 -16 -39t-39 -16zM310 772q-24 0 -40 16t-16 39q0 24 16 40t40 16q23 0 39.5 -16t16.5 -40q0 -23 -16.5 -39t-39.5 -16z" />
    <glyph glyph-name="Ograve" unicode="&#xd2;" horiz-adv-x="788" 
d="M394 -12q-104 0 -182 46t-122 127.5t-44 188.5t44 188.5t122 127.5t182 46t182 -46t121.5 -127.5t43.5 -188.5t-43.5 -188.5t-121.5 -127.5t-182 -46zM394 83q72 0 125.5 32t83.5 92t30 143t-30 143t-83.5 92t-125.5 32t-126 -32t-83.5 -92t-29.5 -143t29.5 -143
t83.5 -92t126 -32zM442 741l-218 112v88l218 -124v-76z" />
    <glyph glyph-name="Ohungarumlaut" unicode="&#x150;" horiz-adv-x="788" 
d="M394 -12q-104 0 -182 46t-122 127.5t-44 188.5t44 188.5t122 127.5t182 46t182 -46t121.5 -127.5t43.5 -188.5t-43.5 -188.5t-121.5 -127.5t-182 -46zM394 83q72 0 125.5 32t83.5 92t30 143t-30 143t-83.5 92t-125.5 32t-126 -32t-83.5 -92t-29.5 -143t29.5 -143
t83.5 -92t126 -32zM429 751l76 164h89l-97 -164h-68zM271 751l69 164h88l-88 -164h-69z" />
    <glyph glyph-name="Omacron" unicode="&#x14c;" horiz-adv-x="788" 
d="M394 -12q-104 0 -182 46t-122 127.5t-44 188.5t44 188.5t122 127.5t182 46t182 -46t121.5 -127.5t43.5 -188.5t-43.5 -188.5t-121.5 -127.5t-182 -46zM394 83q72 0 125.5 32t83.5 92t30 143t-30 143t-83.5 92t-125.5 32t-126 -32t-83.5 -92t-29.5 -143t29.5 -143
t83.5 -92t126 -32zM214 789v77h361v-77h-361z" />
    <glyph glyph-name="Oslash" unicode="&#xd8;" horiz-adv-x="785" 
d="M35 0l92 106q-39 46 -60 108t-21 136q0 107 43.5 188.5t122 127.5t181.5 46q61 0 113.5 -16t94.5 -46l44 50h105l-91 -105q40 -46 61 -108.5t21 -136.5q0 -107 -43.5 -188.5t-121.5 -127.5t-183 -46q-60 0 -112.5 16.5t-95.5 46.5l-44 -51h-106zM154 350q0 -98 42 -165
l339 389q-59 43 -142 43q-71 0 -125 -32t-84 -92t-30 -143zM393 83q72 0 126 32t84 92t30 143q0 50 -11 91.5t-32 74.5l-339 -390q59 -43 142 -43z" />
    <glyph glyph-name="Otilde" unicode="&#xd5;" horiz-adv-x="788" 
d="M394 -12q-104 0 -182 46t-122 127.5t-44 188.5t44 188.5t122 127.5t182 46t182 -46t121.5 -127.5t43.5 -188.5t-43.5 -188.5t-121.5 -127.5t-182 -46zM394 83q72 0 125.5 32t83.5 92t30 143t-30 143t-83.5 92t-125.5 32t-126 -32t-83.5 -92t-29.5 -143t29.5 -143
t83.5 -92t126 -32zM458 754q-28 0 -46.5 11.5t-35 23t-37.5 11.5q-36 0 -42 -45h-59q8 58 36 85.5t70 27.5q27 0 46 -11.5t35.5 -23t37.5 -11.5q16 0 28 11t15 34h59q-8 -57 -36.5 -85t-70.5 -28z" />
    <glyph glyph-name="OE" unicode="&#x152;" horiz-adv-x="1111" 
d="M391 -12q-74 0 -136.5 26t-109.5 74.5t-73 115t-26 146.5t26 146.5t73 114.5t109.5 74.5t136.5 26.5q75 0 141.5 -32t108.5 -92v112h415v-86h-309v-218h279v-84h-279v-226h309v-86h-415v110q-42 -59 -108.5 -90.5t-141.5 -31.5zM397 83q67 0 122 32t88 92t33 143t-33 143
t-88 92t-122 32t-122 -32t-87.5 -92t-32.5 -143t32.5 -143t87.5 -92t122 -32z" />
    <glyph glyph-name="P" unicode="P" horiz-adv-x="593" 
d="M71 0v700h245q82 0 136 -27.5t80.5 -75t26.5 -107.5q0 -57 -25.5 -104.5t-79.5 -75.5t-138 -28h-139v-282h-106zM177 369h134q75 0 107.5 32.5t32.5 88.5q0 58 -32.5 90.5t-107.5 32.5h-134v-244z" />
    <glyph glyph-name="Thorn" unicode="&#xde;" horiz-adv-x="593" 
d="M71 0v700h106v-140h139q82 0 136 -27.5t80.5 -75t26.5 -107.5q0 -57 -25.5 -104.5t-79.5 -76t-138 -28.5h-139v-141h-106zM177 228h134q75 0 107.5 33t32.5 89q0 58 -32.5 90t-107.5 32h-134v-244z" />
    <glyph glyph-name="Q" unicode="Q" horiz-adv-x="789" 
d="M394 -12q-104 0 -182 46t-122 127.5t-44 188.5t44 188.5t122 127.5t182 46t182 -46t121.5 -127.5t43.5 -188.5q0 -103 -40.5 -183t-112.5 -126l169 -172h-134l-125 132q-49 -13 -104 -13zM394 83q72 0 125.5 32t83.5 92t30 143t-30 143t-83.5 92t-125.5 32t-126 -32
t-83.5 -92t-29.5 -143t29.5 -143t83.5 -92t126 -32z" />
    <glyph glyph-name="R" unicode="R" horiz-adv-x="608" 
d="M71 0v700h241q83 0 136.5 -28t79.5 -75.5t26 -105.5q0 -65 -34.5 -118t-107.5 -76l149 -297h-123l-136 282h-125v-282h-106zM177 362h129q72 0 105.5 35t33.5 91t-33 89.5t-107 33.5h-128v-249z" />
    <glyph glyph-name="Racute" unicode="&#x154;" horiz-adv-x="608" 
d="M71 0v700h241q83 0 136.5 -28t79.5 -75.5t26 -105.5q0 -65 -34.5 -118t-107.5 -76l149 -297h-123l-136 282h-125v-282h-106zM177 362h129q72 0 105.5 35t33.5 91t-33 89.5t-107 33.5h-128v-249zM229 741v76l218 124v-88z" />
    <glyph glyph-name="Rcaron" unicode="&#x158;" horiz-adv-x="608" 
d="M71 0v700h241q83 0 136.5 -28t79.5 -75.5t26 -105.5q0 -65 -34.5 -118t-107.5 -76l149 -297h-123l-136 282h-125v-282h-106zM177 362h129q72 0 105.5 35t33.5 91t-33 89.5t-107 33.5h-128v-249zM276 750l-141 81v78l141 -84l142 84v-78z" />
    <glyph glyph-name="uni0156" unicode="&#x156;" horiz-adv-x="608" 
d="M71 0v700h241q83 0 136.5 -28t79.5 -75.5t26 -105.5q0 -65 -34.5 -118t-107.5 -76l149 -297h-123l-136 282h-125v-282h-106zM177 362h129q72 0 105.5 35t33.5 91t-33 89.5t-107 33.5h-128v-249zM258 -256v46q47 0 47 59v15h-49v88h97q13 -45 13 -85q0 -123 -108 -123z
" />
    <glyph glyph-name="S" unicode="S" horiz-adv-x="588" 
d="M302 -12q-77 0 -135 27t-90.5 77t-33.5 119h112q1 -56 39 -95t107 -39q61 0 95.5 29.5t34.5 75.5q0 37 -16.5 60t-45 38t-65.5 27t-78 26q-81 27 -121.5 70t-40.5 113q-1 59 27.5 103t80 68.5t120.5 24.5q68 0 119.5 -25t80.5 -69.5t30 -103.5h-112q0 27 -14 51.5
t-41 40.5t-66 16q-50 1 -82.5 -25t-32.5 -72q0 -41 24 -63t66 -36.5t96 -33.5q52 -17 93 -41t65.5 -63t24.5 -99q0 -53 -27 -98.5t-81 -74t-133 -28.5z" />
    <glyph glyph-name="Sacute" unicode="&#x15a;" horiz-adv-x="588" 
d="M302 -12q-77 0 -135 27t-90.5 77t-33.5 119h112q1 -56 39 -95t107 -39q61 0 95.5 29.5t34.5 75.5q0 37 -16.5 60t-45 38t-65.5 27t-78 26q-81 27 -121.5 70t-40.5 113q-1 59 27.5 103t80 68.5t120.5 24.5q68 0 119.5 -25t80.5 -69.5t30 -103.5h-112q0 27 -14 51.5
t-41 40.5t-66 16q-50 1 -82.5 -25t-32.5 -72q0 -41 24 -63t66 -36.5t96 -33.5q52 -17 93 -41t65.5 -63t24.5 -99q0 -53 -27 -98.5t-81 -74t-133 -28.5zM245 741v76l218 124v-88z" />
    <glyph glyph-name="Scaron" unicode="&#x160;" horiz-adv-x="588" 
d="M302 -12q-77 0 -135 27t-90.5 77t-33.5 119h112q1 -56 39 -95t107 -39q61 0 95.5 29.5t34.5 75.5q0 37 -16.5 60t-45 38t-65.5 27t-78 26q-81 27 -121.5 70t-40.5 113q-1 59 27.5 103t80 68.5t120.5 24.5q68 0 119.5 -25t80.5 -69.5t30 -103.5h-112q0 27 -14 51.5
t-41 40.5t-66 16q-50 1 -82.5 -25t-32.5 -72q0 -41 24 -63t66 -36.5t96 -33.5q52 -17 93 -41t65.5 -63t24.5 -99q0 -53 -27 -98.5t-81 -74t-133 -28.5zM291 750l-141 81v78l141 -84l142 84v-78z" />
    <glyph glyph-name="Scedilla" unicode="&#x15e;" horiz-adv-x="588" 
d="M302 -12q-77 0 -135 27t-90.5 77t-33.5 119h112q1 -56 39 -95t107 -39q61 0 95.5 29.5t34.5 75.5q0 37 -16.5 60t-45 38t-65.5 27t-78 26q-81 27 -121.5 70t-40.5 113q-1 59 27.5 103t80 68.5t120.5 24.5q68 0 119.5 -25t80.5 -69.5t30 -103.5h-112q0 27 -14 51.5
t-41 40.5t-66 16q-50 1 -82.5 -25t-32.5 -72q0 -41 24 -63t66 -36.5t96 -33.5q52 -17 93 -41t65.5 -63t24.5 -99q0 -53 -27 -98.5t-81 -74t-133 -28.5zM224 -262v64h102q61 0 61 42q0 39 -61 39h-55v123h68v-63q54 1 91.5 -24t37.5 -77q0 -51 -36.5 -77.5t-88.5 -26.5h-119z
" />
    <glyph glyph-name="uni0218" unicode="&#x218;" horiz-adv-x="588" 
d="M302 -12q-77 0 -135 27t-90.5 77t-33.5 119h112q1 -56 39 -95t107 -39q61 0 95.5 29.5t34.5 75.5q0 37 -16.5 60t-45 38t-65.5 27t-78 26q-81 27 -121.5 70t-40.5 113q-1 59 27.5 103t80 68.5t120.5 24.5q68 0 119.5 -25t80.5 -69.5t30 -103.5h-112q0 27 -14 51.5
t-41 40.5t-66 16q-50 1 -82.5 -25t-32.5 -72q0 -41 24 -63t66 -36.5t96 -33.5q52 -17 93 -41t65.5 -63t24.5 -99q0 -53 -27 -98.5t-81 -74t-133 -28.5zM258 -256v46q49 0 49 59v15h-50v88h97q12 -45 12 -85q0 -123 -108 -123z" />
    <glyph glyph-name="uni018F" unicode="&#x18f;" horiz-adv-x="761" 
d="M376 -12q-97 0 -171.5 39.5t-116.5 114t-42 179.5q0 14 1 29t3 30h552q-3 74 -33 127t-79.5 81t-111.5 28q-74 0 -130 -37t-78 -103h-117q20 71 65.5 124t111.5 82.5t148 29.5q100 0 175.5 -45.5t118 -127.5t42.5 -192q0 -108 -42 -188.5t-118.5 -125.5t-177.5 -45z
M375 85q61 0 111 24.5t81 72t35 115.5h-446q0 -64 27.5 -111.5t77 -74t114.5 -26.5z" />
    <glyph glyph-name="T" unicode="T" horiz-adv-x="575" 
d="M235 0v614h-207v86h519v-86h-206v-614h-106z" />
    <glyph glyph-name="Tcaron" unicode="&#x164;" horiz-adv-x="575" 
d="M235 0v614h-207v86h519v-86h-206v-614h-106zM286 750l-141 81v78l141 -84l142 84v-78z" />
    <glyph glyph-name="uni0162" unicode="&#x162;" horiz-adv-x="575" 
d="M235 0v614h-207v86h519v-86h-206v-614h-106zM209 -262v64h102q61 0 61 42q0 39 -61 39h-55v123h68v-63q54 1 91.5 -24t37.5 -77q0 -51 -36.5 -77.5t-88.5 -26.5h-119z" />
    <glyph glyph-name="uni021A" unicode="&#x21a;" horiz-adv-x="575" 
d="M235 0v614h-207v86h519v-86h-206v-614h-106zM236 -256v46q48 0 48 59v15h-50v88h98q12 -46 12 -85q0 -123 -108 -123z" />
    <glyph glyph-name="U" unicode="U" horiz-adv-x="668" 
d="M333 -12q-75 0 -135.5 29.5t-96 90.5t-35.5 155v437h106v-438q0 -92 44 -135t119 -43q74 0 118 43t44 135v438h106v-437q0 -94 -36.5 -155t-98 -90.5t-135.5 -29.5z" />
    <glyph glyph-name="Uacute" unicode="&#xda;" horiz-adv-x="668" 
d="M333 -12q-75 0 -135.5 29.5t-96 90.5t-35.5 155v437h106v-438q0 -92 44 -135t119 -43q74 0 118 43t44 135v438h106v-437q0 -94 -36.5 -155t-98 -90.5t-135.5 -29.5zM286 741v76l218 124v-88z" />
    <glyph glyph-name="Ubreve" unicode="&#x16c;" horiz-adv-x="668" 
d="M333 -12q-75 0 -135.5 29.5t-96 90.5t-35.5 155v437h106v-438q0 -92 44 -135t119 -43q74 0 118 43t44 135v438h106v-437q0 -94 -36.5 -155t-98 -90.5t-135.5 -29.5zM333 753q-70 0 -108.5 39.5t-38.5 101.5v15h59q0 -36 20 -55.5t68 -19.5q49 0 69 19.5t20 55.5h60v-15
q0 -63 -39 -102t-110 -39z" />
    <glyph glyph-name="Ucircumflex" unicode="&#xdb;" horiz-adv-x="668" 
d="M333 -12q-75 0 -135.5 29.5t-96 90.5t-35.5 155v437h106v-438q0 -92 44 -135t119 -43q74 0 118 43t44 135v438h106v-437q0 -94 -36.5 -155t-98 -90.5t-135.5 -29.5zM192 751v79l141 81l142 -81v-79l-142 83z" />
    <glyph glyph-name="Udieresis" unicode="&#xdc;" horiz-adv-x="668" 
d="M333 -12q-75 0 -135.5 29.5t-96 90.5t-35.5 155v437h106v-438q0 -92 44 -135t119 -43q74 0 118 43t44 135v438h106v-437q0 -94 -36.5 -155t-98 -90.5t-135.5 -29.5zM419 772q-23 0 -39.5 16t-16.5 39q0 24 16.5 40t39.5 16t39 -16t16 -40q0 -23 -16 -39t-39 -16zM249 772
q-24 0 -40 16t-16 39q0 24 16 40t40 16q23 0 39.5 -16t16.5 -40q0 -23 -16.5 -39t-39.5 -16z" />
    <glyph glyph-name="Ugrave" unicode="&#xd9;" horiz-adv-x="668" 
d="M333 -12q-75 0 -135.5 29.5t-96 90.5t-35.5 155v437h106v-438q0 -92 44 -135t119 -43q74 0 118 43t44 135v438h106v-437q0 -94 -36.5 -155t-98 -90.5t-135.5 -29.5zM381 741l-218 112v88l218 -124v-76z" />
    <glyph glyph-name="Uhungarumlaut" unicode="&#x170;" horiz-adv-x="668" 
d="M333 -12q-75 0 -135.5 29.5t-96 90.5t-35.5 155v437h106v-438q0 -92 44 -135t119 -43q74 0 118 43t44 135v438h106v-437q0 -94 -36.5 -155t-98 -90.5t-135.5 -29.5zM368 751l76 164h89l-97 -164h-68zM210 751l69 164h88l-88 -164h-69z" />
    <glyph glyph-name="Umacron" unicode="&#x16a;" horiz-adv-x="668" 
d="M333 -12q-75 0 -135.5 29.5t-96 90.5t-35.5 155v437h106v-438q0 -92 44 -135t119 -43q74 0 118 43t44 135v438h106v-437q0 -94 -36.5 -155t-98 -90.5t-135.5 -29.5zM153 789v77h361v-77h-361z" />
    <glyph glyph-name="Uogonek" unicode="&#x172;" horiz-adv-x="668" 
d="M333 -12q-75 0 -135.5 29.5t-96 90.5t-35.5 155v437h106v-438q0 -92 44 -135t119 -43q74 0 118 43t44 135v438h106v-437q0 -94 -36.5 -155t-98 -90.5t-135.5 -29.5zM330 -206q-50 0 -87.5 23.5t-37.5 76.5q0 38 27.5 71.5t99.5 65.5l50 22l25 -52l-55 -27
q-36 -18 -50 -35t-14 -35q0 -21 15 -33t40 -12q31 0 68 15v-66q-18 -6 -39 -10t-42 -4z" />
    <glyph glyph-name="Uring" unicode="&#x16e;" horiz-adv-x="668" 
d="M333 -12q-75 0 -135.5 29.5t-96 90.5t-35.5 155v437h106v-438q0 -92 44 -135t119 -43q74 0 118 43t44 135v438h106v-437q0 -94 -36.5 -155t-98 -90.5t-135.5 -29.5zM334 756q-44 0 -76.5 28.5t-32.5 78.5t32.5 79t76.5 29q46 0 78 -29t32 -79t-32 -78.5t-78 -28.5z
M334 807q23 0 39 15.5t16 40.5q0 27 -16 42t-39 15q-22 0 -38 -15t-16 -42q0 -25 16 -40.5t38 -15.5z" />
    <glyph glyph-name="Utilde" unicode="&#x168;" horiz-adv-x="668" 
d="M333 -12q-75 0 -135.5 29.5t-96 90.5t-35.5 155v437h106v-438q0 -92 44 -135t119 -43q74 0 118 43t44 135v438h106v-437q0 -94 -36.5 -155t-98 -90.5t-135.5 -29.5zM397 754q-28 0 -46.5 11.5t-35 23t-37.5 11.5q-36 0 -42 -45h-59q8 58 36 85.5t70 27.5q27 0 46 -11.5
t35.5 -23t37.5 -11.5q16 0 28 11t15 34h59q-8 -57 -36.5 -85t-70.5 -28z" />
    <glyph glyph-name="V" unicode="V" horiz-adv-x="684" 
d="M278 0l-259 700h113l210 -590l211 590h112l-259 -700h-128z" />
    <glyph glyph-name="W" unicode="W" horiz-adv-x="989" 
d="M214 -1l-189 701h114l139 -580l160 580h117l155 -580l139 580h114l-192 -700h-124l-153 549l-158 -549z" />
    <glyph glyph-name="Wacute" unicode="&#x1e82;" horiz-adv-x="989" 
d="M214 -1l-189 701h114l139 -580l160 580h117l155 -580l139 580h114l-192 -700h-124l-153 549l-158 -549zM447 741v76l218 124v-88z" />
    <glyph glyph-name="Wcircumflex" unicode="&#x174;" horiz-adv-x="989" 
d="M214 -1l-189 701h114l139 -580l160 580h117l155 -580l139 580h114l-192 -700h-124l-153 549l-158 -549zM353 751v79l141 81l142 -81v-79l-142 83z" />
    <glyph glyph-name="Wdieresis" unicode="&#x1e84;" horiz-adv-x="989" 
d="M214 -1l-189 701h114l139 -580l160 580h117l155 -580l139 580h114l-192 -700h-124l-153 549l-158 -549zM580 772q-23 0 -39.5 16t-16.5 39q0 24 16.5 40t39.5 16t39 -16t16 -40q0 -23 -16 -39t-39 -16zM410 772q-24 0 -40 16t-16 39q0 24 16 40t40 16q23 0 39.5 -16
t16.5 -40q0 -23 -16.5 -39t-39.5 -16z" />
    <glyph glyph-name="Wgrave" unicode="&#x1e80;" horiz-adv-x="989" 
d="M214 -1l-189 701h114l139 -580l160 580h117l155 -580l139 580h114l-192 -700h-124l-153 549l-158 -549zM542 741l-218 112v88l218 -124v-76z" />
    <glyph glyph-name="X" unicode="X" horiz-adv-x="631" 
d="M36 0l216 354l-218 346h121l165 -262l154 262h119l-217 -351l220 -349h-121l-166 264l-154 -264h-119z" />
    <glyph glyph-name="Y" unicode="Y" horiz-adv-x="602" 
d="M249 0v258l-232 442h120l165 -338l164 338h119l-230 -442v-258h-106z" />
    <glyph glyph-name="Yacute" unicode="&#xdd;" horiz-adv-x="602" 
d="M249 0v258l-232 442h120l165 -338l164 338h119l-230 -442v-258h-106zM255 741v76l218 124v-88z" />
    <glyph glyph-name="Ycircumflex" unicode="&#x176;" horiz-adv-x="602" 
d="M249 0v258l-232 442h120l165 -338l164 338h119l-230 -442v-258h-106zM160 751v79l141 81l142 -81v-79l-142 83z" />
    <glyph glyph-name="Ydieresis" unicode="&#x178;" horiz-adv-x="602" 
d="M249 0v258l-232 442h120l165 -338l164 338h119l-230 -442v-258h-106zM387 772q-23 0 -39.5 16t-16.5 39q0 24 16.5 40t39.5 16t39 -16t16 -40q0 -23 -16 -39t-39 -16zM217 772q-24 0 -40 16t-16 39q0 24 16 40t40 16q23 0 39.5 -16t16.5 -40q0 -23 -16.5 -39t-39.5 -16z
" />
    <glyph glyph-name="Ygrave" unicode="&#x1ef2;" horiz-adv-x="602" 
d="M249 0v258l-232 442h120l165 -338l164 338h119l-230 -442v-258h-106zM349 741l-218 112v88l218 -124v-76z" />
    <glyph glyph-name="uni1EF8" unicode="&#x1ef8;" horiz-adv-x="602" 
d="M249 0v258l-232 442h120l165 -338l164 338h119l-230 -442v-258h-106zM366 754q-28 0 -46.5 11.5t-35 23t-37.5 11.5q-36 0 -42 -45h-59q8 58 36 85.5t70 27.5q27 0 46 -11.5t35.5 -23t37.5 -11.5q16 0 28 11t15 34h59q-8 -57 -36.5 -85t-70.5 -28z" />
    <glyph glyph-name="Z" unicode="Z" horiz-adv-x="550" 
d="M45 0v82l334 528h-330v90h453v-82l-335 -528h338v-90h-460z" />
    <glyph glyph-name="Zacute" unicode="&#x179;" horiz-adv-x="550" 
d="M45 0v82l334 528h-330v90h453v-82l-335 -528h338v-90h-460zM228 741v76l218 124v-88z" />
    <glyph glyph-name="Zcaron" unicode="&#x17d;" horiz-adv-x="550" 
d="M45 0v82l334 528h-330v90h453v-82l-335 -528h338v-90h-460zM275 750l-141 81v78l141 -84l142 84v-78z" />
    <glyph glyph-name="Zdotaccent" unicode="&#x17b;" horiz-adv-x="550" 
d="M45 0v82l334 528h-330v90h453v-82l-335 -528h338v-90h-460zM275 765q-23 0 -39.5 16.5t-16.5 39.5t16.5 39.5t39.5 16.5t39.5 -16.5t16.5 -39.5t-16.5 -39.5t-39.5 -16.5z" />
    <glyph glyph-name="a" unicode="a" horiz-adv-x="559" 
d="M235 -12q-63 0 -104 21t-61 55.5t-20 75.5q0 72 56 114t160 42h130v9q0 58 -31.5 87t-81.5 29q-44 0 -76.5 -21.5t-39.5 -63.5h-106q5 54 36.5 92.5t80 59t106.5 20.5q104 0 161 -54.5t57 -148.5v-305h-92l-9 85q-21 -41 -61 -69t-105 -28zM256 74q43 0 72.5 20.5
t46 54.5t20.5 75h-118q-63 0 -89.5 -22t-26.5 -55q0 -34 25.5 -53.5t69.5 -19.5z" />
    <glyph glyph-name="aacute" unicode="&#xe1;" horiz-adv-x="559" 
d="M235 -12q-63 0 -104 21t-61 55.5t-20 75.5q0 72 56 114t160 42h130v9q0 58 -31.5 87t-81.5 29q-44 0 -76.5 -21.5t-39.5 -63.5h-106q5 54 36.5 92.5t80 59t106.5 20.5q104 0 161 -54.5t57 -148.5v-305h-92l-9 85q-21 -41 -61 -69t-105 -28zM256 74q43 0 72.5 20.5
t46 54.5t20.5 75h-118q-63 0 -89.5 -22t-26.5 -55q0 -34 25.5 -53.5t69.5 -19.5zM252 537v76l218 124v-88z" />
    <glyph glyph-name="abreve" unicode="&#x103;" horiz-adv-x="559" 
d="M235 -12q-63 0 -104 21t-61 55.5t-20 75.5q0 72 56 114t160 42h130v9q0 58 -31.5 87t-81.5 29q-44 0 -76.5 -21.5t-39.5 -63.5h-106q5 54 36.5 92.5t80 59t106.5 20.5q104 0 161 -54.5t57 -148.5v-305h-92l-9 85q-21 -41 -61 -69t-105 -28zM256 74q43 0 72.5 20.5
t46 54.5t20.5 75h-118q-63 0 -89.5 -22t-26.5 -55q0 -34 25.5 -53.5t69.5 -19.5zM280 549q-70 0 -108.5 39.5t-38.5 101.5v15h59q0 -36 20 -55.5t68 -19.5q49 0 69 19.5t20 55.5h60v-15q0 -63 -39 -102t-110 -39z" />
    <glyph glyph-name="acircumflex" unicode="&#xe2;" horiz-adv-x="559" 
d="M235 -12q-63 0 -104 21t-61 55.5t-20 75.5q0 72 56 114t160 42h130v9q0 58 -31.5 87t-81.5 29q-44 0 -76.5 -21.5t-39.5 -63.5h-106q5 54 36.5 92.5t80 59t106.5 20.5q104 0 161 -54.5t57 -148.5v-305h-92l-9 85q-21 -41 -61 -69t-105 -28zM256 74q43 0 72.5 20.5
t46 54.5t20.5 75h-118q-63 0 -89.5 -22t-26.5 -55q0 -34 25.5 -53.5t69.5 -19.5zM139 547v79l141 81l142 -81v-79l-142 83z" />
    <glyph glyph-name="adieresis" unicode="&#xe4;" horiz-adv-x="559" 
d="M235 -12q-63 0 -104 21t-61 55.5t-20 75.5q0 72 56 114t160 42h130v9q0 58 -31.5 87t-81.5 29q-44 0 -76.5 -21.5t-39.5 -63.5h-106q5 54 36.5 92.5t80 59t106.5 20.5q104 0 161 -54.5t57 -148.5v-305h-92l-9 85q-21 -41 -61 -69t-105 -28zM256 74q43 0 72.5 20.5
t46 54.5t20.5 75h-118q-63 0 -89.5 -22t-26.5 -55q0 -34 25.5 -53.5t69.5 -19.5zM366 568q-23 0 -39.5 16t-16.5 39q0 24 16.5 40t39.5 16t39 -16t16 -40q0 -23 -16 -39t-39 -16zM196 568q-24 0 -40 16t-16 39q0 24 16 40t40 16q23 0 39.5 -16t16.5 -40q0 -23 -16.5 -39
t-39.5 -16z" />
    <glyph glyph-name="agrave" unicode="&#xe0;" horiz-adv-x="559" 
d="M235 -12q-63 0 -104 21t-61 55.5t-20 75.5q0 72 56 114t160 42h130v9q0 58 -31.5 87t-81.5 29q-44 0 -76.5 -21.5t-39.5 -63.5h-106q5 54 36.5 92.5t80 59t106.5 20.5q104 0 161 -54.5t57 -148.5v-305h-92l-9 85q-21 -41 -61 -69t-105 -28zM256 74q43 0 72.5 20.5
t46 54.5t20.5 75h-118q-63 0 -89.5 -22t-26.5 -55q0 -34 25.5 -53.5t69.5 -19.5zM328 537l-218 112v88l218 -124v-76z" />
    <glyph glyph-name="amacron" unicode="&#x101;" horiz-adv-x="559" 
d="M235 -12q-63 0 -104 21t-61 55.5t-20 75.5q0 72 56 114t160 42h130v9q0 58 -31.5 87t-81.5 29q-44 0 -76.5 -21.5t-39.5 -63.5h-106q5 54 36.5 92.5t80 59t106.5 20.5q104 0 161 -54.5t57 -148.5v-305h-92l-9 85q-21 -41 -61 -69t-105 -28zM256 74q43 0 72.5 20.5
t46 54.5t20.5 75h-118q-63 0 -89.5 -22t-26.5 -55q0 -34 25.5 -53.5t69.5 -19.5zM100 585v77h361v-77h-361z" />
    <glyph glyph-name="aogonek" unicode="&#x105;" horiz-adv-x="559" 
d="M235 -12q-63 0 -104 21t-61 55.5t-20 75.5q0 72 56 114t160 42h130v9q0 58 -31.5 87t-81.5 29q-44 0 -76.5 -21.5t-39.5 -63.5h-106q5 54 36.5 92.5t80 59t106.5 20.5q104 0 161 -54.5t57 -148.5v-305h-92l-9 85q-21 -41 -61 -69t-105 -28zM256 74q43 0 72.5 20.5
t46 54.5t20.5 75h-118q-63 0 -89.5 -22t-26.5 -55q0 -34 25.5 -53.5t69.5 -19.5zM425 -207q-50 0 -87.5 23.5t-37.5 76.5q0 38 27.5 71.5t99.5 65.5l50 22l25 -52l-55 -27q-36 -18 -50 -35t-14 -35q0 -21 15 -33t40 -12q31 0 68 15v-66q-18 -6 -39 -10t-42 -4z" />
    <glyph glyph-name="aring" unicode="&#xe5;" horiz-adv-x="559" 
d="M235 -12q-63 0 -104 21t-61 55.5t-20 75.5q0 72 56 114t160 42h130v9q0 58 -31.5 87t-81.5 29q-44 0 -76.5 -21.5t-39.5 -63.5h-106q5 54 36.5 92.5t80 59t106.5 20.5q104 0 161 -54.5t57 -148.5v-305h-92l-9 85q-21 -41 -61 -69t-105 -28zM256 74q43 0 72.5 20.5
t46 54.5t20.5 75h-118q-63 0 -89.5 -22t-26.5 -55q0 -34 25.5 -53.5t69.5 -19.5zM280 552q-44 0 -76.5 28.5t-32.5 78.5t32.5 79t76.5 29q46 0 78 -29t32 -79t-32 -78.5t-78 -28.5zM280 603q24 0 40 15.5t16 40.5q0 27 -16 42t-40 15q-22 0 -38 -15t-16 -42q0 -25 16 -40.5
t38 -15.5z" />
    <glyph glyph-name="atilde" unicode="&#xe3;" horiz-adv-x="559" 
d="M235 -12q-63 0 -104 21t-61 55.5t-20 75.5q0 72 56 114t160 42h130v9q0 58 -31.5 87t-81.5 29q-44 0 -76.5 -21.5t-39.5 -63.5h-106q5 54 36.5 92.5t80 59t106.5 20.5q104 0 161 -54.5t57 -148.5v-305h-92l-9 85q-21 -41 -61 -69t-105 -28zM256 74q43 0 72.5 20.5
t46 54.5t20.5 75h-118q-63 0 -89.5 -22t-26.5 -55q0 -34 25.5 -53.5t69.5 -19.5zM337 550q-27 0 -46 11.5t-35.5 23t-36.5 11.5q-37 0 -43 -45h-59q9 58 36.5 85.5t69.5 27.5q27 0 46 -11.5t35.5 -23t37.5 -11.5q17 0 28.5 11t14.5 34h59q-8 -57 -36.5 -85t-70.5 -28z" />
    <glyph glyph-name="ae" unicode="&#xe6;" horiz-adv-x="927" 
d="M241 -12q-63 0 -105.5 21t-64 55.5t-21.5 75.5q0 73 55 114.5t156 41.5h136v9q0 58 -31.5 87t-78.5 29q-41 0 -72 -21.5t-39 -62.5h-106q6 54 36.5 92t78 58.5t102.5 20.5q61 0 106.5 -21.5t71.5 -59.5q33 38 80 59.5t102 21.5q71 0 124.5 -32t83 -86t29.5 -119v-21.5
t-1 -25.5h-378q2 -49 22.5 -82t52 -49.5t66.5 -16.5q49 0 80 25t46 65h104q-13 -50 -44 -90.5t-78.5 -64t-107.5 -23.5q-65 0 -119 29.5t-86 80.5q-30 -47 -78.5 -78.5t-121.5 -31.5zM507 297h271q-3 58 -40.5 91t-90.5 33q-51 0 -91.5 -31.5t-48.5 -92.5zM253 74
q38 0 68 18.5t49 49.5t24 67v15h-121q-60 0 -86 -21t-26 -54q0 -34 25 -54.5t67 -20.5z" />
    <glyph glyph-name="aeacute" unicode="&#x1fd;" horiz-adv-x="927" 
d="M241 -12q-63 0 -105.5 21t-64 55.5t-21.5 75.5q0 73 55 114.5t156 41.5h136v9q0 58 -31.5 87t-78.5 29q-41 0 -72 -21.5t-39 -62.5h-106q6 54 36.5 92t78 58.5t102.5 20.5q61 0 106.5 -21.5t71.5 -59.5q33 38 80 59.5t102 21.5q71 0 124.5 -32t83 -86t29.5 -119v-21.5
t-1 -25.5h-378q2 -49 22.5 -82t52 -49.5t66.5 -16.5q49 0 80 25t46 65h104q-13 -50 -44 -90.5t-78.5 -64t-107.5 -23.5q-65 0 -119 29.5t-86 80.5q-30 -47 -78.5 -78.5t-121.5 -31.5zM507 297h271q-3 58 -40.5 91t-90.5 33q-51 0 -91.5 -31.5t-48.5 -92.5zM253 74
q38 0 68 18.5t49 49.5t24 67v15h-121q-60 0 -86 -21t-26 -54q0 -34 25 -54.5t67 -20.5zM442 537v76l218 124v-88z" />
    <glyph glyph-name="b" unicode="b" horiz-adv-x="640" 
d="M346 -12q-58 0 -102.5 23t-70.5 65l-11 -76h-95v720h106v-301q24 35 66 62t108 27q72 0 127 -34t86.5 -93t31.5 -134t-31.5 -133.5t-86.5 -92t-128 -33.5zM328 80q68 0 112 46.5t44 121.5q0 49 -20 87t-55 59.5t-81 21.5q-68 0 -111.5 -47t-43.5 -121q0 -75 43.5 -121.5
t111.5 -46.5z" />
    <glyph glyph-name="c" unicode="c" horiz-adv-x="585" 
d="M302 -12q-73 0 -130.5 33t-90 91.5t-32.5 135.5t32.5 135.5t90 91.5t130.5 33q92 0 154.5 -48t80.5 -130h-111q-10 41 -44 64t-80 23q-39 0 -72 -19.5t-53 -57t-20 -92.5t20 -92.5t53 -57.5t72 -20q46 0 80 23t44 65h111q-17 -80 -80 -129t-155 -49z" />
    <glyph glyph-name="cacute" unicode="&#x107;" horiz-adv-x="585" 
d="M302 -12q-73 0 -130.5 33t-90 91.5t-32.5 135.5t32.5 135.5t90 91.5t130.5 33q92 0 154.5 -48t80.5 -130h-111q-10 41 -44 64t-80 23q-39 0 -72 -19.5t-53 -57t-20 -92.5t20 -92.5t53 -57.5t72 -20q46 0 80 23t44 65h111q-17 -80 -80 -129t-155 -49zM276 538v76l218 124
v-88z" />
    <glyph glyph-name="ccaron" unicode="&#x10d;" horiz-adv-x="585" 
d="M302 -12q-73 0 -130.5 33t-90 91.5t-32.5 135.5t32.5 135.5t90 91.5t130.5 33q92 0 154.5 -48t80.5 -130h-111q-10 41 -44 64t-80 23q-39 0 -72 -19.5t-53 -57t-20 -92.5t20 -92.5t53 -57.5t72 -20q46 0 80 23t44 65h111q-17 -80 -80 -129t-155 -49zM304 547l-141 81v78
l141 -84l142 84v-78z" />
    <glyph glyph-name="ccedilla" unicode="&#xe7;" horiz-adv-x="585" 
d="M302 -12q-73 0 -130.5 33t-90 91.5t-32.5 135.5t32.5 135.5t90 91.5t130.5 33q92 0 154.5 -48t80.5 -130h-111q-10 41 -44 64t-80 23q-39 0 -72 -19.5t-53 -57t-20 -92.5t20 -92.5t53 -57.5t72 -20q46 0 80 23t44 65h111q-17 -80 -80 -129t-155 -49zM221 -263v64h102
q61 0 61 42q0 39 -61 39h-55v123h68v-63q54 1 91.5 -24t37.5 -77q0 -51 -36.5 -77.5t-88.5 -26.5h-119z" />
    <glyph glyph-name="cdotaccent" unicode="&#x10b;" horiz-adv-x="585" 
d="M302 -12q-73 0 -130.5 33t-90 91.5t-32.5 135.5t32.5 135.5t90 91.5t130.5 33q92 0 154.5 -48t80.5 -130h-111q-10 41 -44 64t-80 23q-39 0 -72 -19.5t-53 -57t-20 -92.5t20 -92.5t53 -57.5t72 -20q46 0 80 23t44 65h111q-17 -80 -80 -129t-155 -49zM303 562
q-23 0 -39 16.5t-16 39.5t16 39.5t39 16.5q24 0 40 -16.5t16 -39.5t-16 -39.5t-40 -16.5z" />
    <glyph glyph-name="d" unicode="d" horiz-adv-x="640" 
d="M293 -12q-72 0 -127 34t-86 93t-31 134t31 133.5t86.5 92t127.5 33.5q59 0 103.5 -23t69.5 -65v300h106v-720h-95l-11 77q-24 -35 -66 -62t-108 -27zM312 80q68 0 111.5 47t43.5 121q0 75 -43.5 121.5t-111.5 46.5t-112 -46.5t-44 -121.5q0 -49 20 -87t55.5 -59.5
t80.5 -21.5z" />
    <glyph glyph-name="eth" unicode="&#xf0;" horiz-adv-x="636" 
d="M315 -12q-78 0 -138 34.5t-94 93t-34 130.5q0 75 34 133.5t92.5 92t132.5 33.5q43 0 84.5 -14t75.5 -46q-28 75 -79 143l-131 -44v67l86 29q-29 31 -63 60h102q20 -16 37 -34l127 43v-68l-80 -27q60 -75 90 -160t30 -174q0 -88 -36.5 -153.5t-98 -102t-137.5 -36.5z
M318 78q42 0 79 20.5t59.5 58.5t22.5 90t-22.5 89.5t-59.5 58t-79 20.5q-43 0 -79.5 -20.5t-59 -58t-22.5 -89.5t22.5 -90t59 -58.5t79.5 -20.5z" />
    <glyph glyph-name="dcaron" unicode="&#x10f;" horiz-adv-x="772" 
d="M648 523v46q49 0 49 56v22h-52v93h99q7 -27 10.5 -51.5t3.5 -45.5q0 -120 -110 -120zM293 -12q-72 0 -127 34t-86 93t-31 134t31 133.5t86.5 92t127.5 33.5q59 0 103.5 -23t69.5 -65v300h106v-720h-95l-11 77q-24 -35 -66 -62t-108 -27zM312 80q68 0 111.5 47t43.5 121
q0 75 -43.5 121.5t-111.5 46.5t-112 -46.5t-44 -121.5q0 -49 20 -87t55.5 -59.5t80.5 -21.5z" />
    <glyph glyph-name="dcroat" unicode="&#x111;" horiz-adv-x="678" 
d="M293 -12q-72 0 -127 34t-86 93t-31 134t31 133.5t86.5 92t127.5 33.5q59 0 103.5 -23t69.5 -65v148h-142v71h142v81h106v-81h73v-71h-73v-568h-95l-11 77q-24 -35 -66 -62t-108 -27zM312 80q68 0 111.5 47t43.5 121q0 75 -43.5 121.5t-111.5 46.5t-112 -46.5t-44 -121.5
q0 -49 20 -87t55.5 -59.5t80.5 -21.5z" />
    <glyph glyph-name="e" unicode="e" horiz-adv-x="584" 
d="M299 -12q-73 0 -129.5 32.5t-88.5 90.5t-32 135q0 78 31.5 137t88 92t131.5 33q73 0 127 -32.5t84 -86.5t30 -119q0 -10 -0.5 -21.5t-1.5 -25.5h-386q5 -72 47.5 -109.5t98.5 -37.5q45 0 75.5 20.5t45.5 55.5h106q-20 -70 -79.5 -117t-147.5 -47zM299 421
q-53 0 -94 -31.5t-50 -94.5h280q-3 58 -41 92t-95 34z" />
    <glyph glyph-name="eacute" unicode="&#xe9;" horiz-adv-x="584" 
d="M299 -12q-73 0 -129.5 32.5t-88.5 90.5t-32 135q0 78 31.5 137t88 92t131.5 33q73 0 127 -32.5t84 -86.5t30 -119q0 -10 -0.5 -21.5t-1.5 -25.5h-386q5 -72 47.5 -109.5t98.5 -37.5q45 0 75.5 20.5t45.5 55.5h106q-20 -70 -79.5 -117t-147.5 -47zM299 421
q-53 0 -94 -31.5t-50 -94.5h280q-3 58 -41 92t-95 34zM270 537v76l218 124v-88z" />
    <glyph glyph-name="ebreve" unicode="&#x115;" horiz-adv-x="584" 
d="M299 -12q-73 0 -129.5 32.5t-88.5 90.5t-32 135q0 78 31.5 137t88 92t131.5 33q73 0 127 -32.5t84 -86.5t30 -119q0 -10 -0.5 -21.5t-1.5 -25.5h-386q5 -72 47.5 -109.5t98.5 -37.5q45 0 75.5 20.5t45.5 55.5h106q-20 -70 -79.5 -117t-147.5 -47zM299 421
q-53 0 -94 -31.5t-50 -94.5h280q-3 58 -41 92t-95 34zM298 549q-70 0 -108.5 39.5t-38.5 101.5v15h59q0 -36 20 -55.5t68 -19.5q49 0 69 19.5t20 55.5h60v-15q0 -63 -39 -102t-110 -39z" />
    <glyph glyph-name="ecaron" unicode="&#x11b;" horiz-adv-x="584" 
d="M299 -12q-73 0 -129.5 32.5t-88.5 90.5t-32 135q0 78 31.5 137t88 92t131.5 33q73 0 127 -32.5t84 -86.5t30 -119q0 -10 -0.5 -21.5t-1.5 -25.5h-386q5 -72 47.5 -109.5t98.5 -37.5q45 0 75.5 20.5t45.5 55.5h106q-20 -70 -79.5 -117t-147.5 -47zM299 421
q-53 0 -94 -31.5t-50 -94.5h280q-3 58 -41 92t-95 34zM298 546l-141 81v78l141 -84l142 84v-78z" />
    <glyph glyph-name="ecircumflex" unicode="&#xea;" horiz-adv-x="584" 
d="M299 -12q-73 0 -129.5 32.5t-88.5 90.5t-32 135q0 78 31.5 137t88 92t131.5 33q73 0 127 -32.5t84 -86.5t30 -119q0 -10 -0.5 -21.5t-1.5 -25.5h-386q5 -72 47.5 -109.5t98.5 -37.5q45 0 75.5 20.5t45.5 55.5h106q-20 -70 -79.5 -117t-147.5 -47zM299 421
q-53 0 -94 -31.5t-50 -94.5h280q-3 58 -41 92t-95 34zM157 547v79l141 81l142 -81v-79l-142 83z" />
    <glyph glyph-name="edieresis" unicode="&#xeb;" horiz-adv-x="584" 
d="M299 -12q-73 0 -129.5 32.5t-88.5 90.5t-32 135q0 78 31.5 137t88 92t131.5 33q73 0 127 -32.5t84 -86.5t30 -119q0 -10 -0.5 -21.5t-1.5 -25.5h-386q5 -72 47.5 -109.5t98.5 -37.5q45 0 75.5 20.5t45.5 55.5h106q-20 -70 -79.5 -117t-147.5 -47zM299 421
q-53 0 -94 -31.5t-50 -94.5h280q-3 58 -41 92t-95 34zM383 568q-23 0 -39.5 16t-16.5 39q0 24 16.5 40t39.5 16t39 -16t16 -40q0 -23 -16 -39t-39 -16zM213 568q-24 0 -40 16t-16 39q0 24 16 40t40 16q23 0 39.5 -16t16.5 -40q0 -23 -16.5 -39t-39.5 -16z" />
    <glyph glyph-name="edotaccent" unicode="&#x117;" horiz-adv-x="584" 
d="M299 -12q-73 0 -129.5 32.5t-88.5 90.5t-32 135q0 78 31.5 137t88 92t131.5 33q73 0 127 -32.5t84 -86.5t30 -119q0 -10 -0.5 -21.5t-1.5 -25.5h-386q5 -72 47.5 -109.5t98.5 -37.5q45 0 75.5 20.5t45.5 55.5h106q-20 -70 -79.5 -117t-147.5 -47zM299 421
q-53 0 -94 -31.5t-50 -94.5h280q-3 58 -41 92t-95 34zM297 561q-23 0 -39 16.5t-16 39.5t16 39.5t39 16.5q24 0 40 -16.5t16 -39.5t-16 -39.5t-40 -16.5z" />
    <glyph glyph-name="egrave" unicode="&#xe8;" horiz-adv-x="584" 
d="M299 -12q-73 0 -129.5 32.5t-88.5 90.5t-32 135q0 78 31.5 137t88 92t131.5 33q73 0 127 -32.5t84 -86.5t30 -119q0 -10 -0.5 -21.5t-1.5 -25.5h-386q5 -72 47.5 -109.5t98.5 -37.5q45 0 75.5 20.5t45.5 55.5h106q-20 -70 -79.5 -117t-147.5 -47zM299 421
q-53 0 -94 -31.5t-50 -94.5h280q-3 58 -41 92t-95 34zM345 537l-218 112v88l218 -124v-76z" />
    <glyph glyph-name="emacron" unicode="&#x113;" horiz-adv-x="584" 
d="M299 -12q-73 0 -129.5 32.5t-88.5 90.5t-32 135q0 78 31.5 137t88 92t131.5 33q73 0 127 -32.5t84 -86.5t30 -119q0 -10 -0.5 -21.5t-1.5 -25.5h-386q5 -72 47.5 -109.5t98.5 -37.5q45 0 75.5 20.5t45.5 55.5h106q-20 -70 -79.5 -117t-147.5 -47zM299 421
q-53 0 -94 -31.5t-50 -94.5h280q-3 58 -41 92t-95 34zM117 585v77h361v-77h-361z" />
    <glyph glyph-name="eogonek" unicode="&#x119;" horiz-adv-x="584" 
d="M299 -12q-73 0 -129.5 32.5t-88.5 90.5t-32 135q0 78 31.5 137t88 92t131.5 33q73 0 127 -32.5t84 -86.5t30 -119q0 -10 -0.5 -21.5t-1.5 -25.5h-386q5 -72 47.5 -109.5t98.5 -37.5q45 0 75.5 20.5t45.5 55.5h106q-20 -70 -79.5 -117t-147.5 -47zM299 421
q-53 0 -94 -31.5t-50 -94.5h280q-3 58 -41 92t-95 34zM324 -195q-50 0 -87.5 23.5t-37.5 76.5q0 38 27.5 71.5t99.5 65.5l50 22l25 -52l-55 -27q-36 -18 -50 -35t-14 -35q0 -21 15 -33t40 -12q31 0 68 15v-66q-18 -6 -39 -10t-42 -4z" />
    <glyph glyph-name="uni1EBD" unicode="&#x1ebd;" horiz-adv-x="584" 
d="M299 -12q-73 0 -129.5 32.5t-88.5 90.5t-32 135q0 78 31.5 137t88 92t131.5 33q73 0 127 -32.5t84 -86.5t30 -119q0 -10 -0.5 -21.5t-1.5 -25.5h-386q5 -72 47.5 -109.5t98.5 -37.5q45 0 75.5 20.5t45.5 55.5h106q-20 -70 -79.5 -117t-147.5 -47zM299 421
q-53 0 -94 -31.5t-50 -94.5h280q-3 58 -41 92t-95 34zM355 550q-27 0 -46 11.5t-35.5 23t-36.5 11.5q-37 0 -43 -45h-59q9 58 36.5 85.5t69.5 27.5q27 0 46 -11.5t35.5 -23t37.5 -11.5q17 0 28.5 11t14.5 34h59q-8 -57 -36.5 -85t-70.5 -28z" />
    <glyph glyph-name="uni0259" unicode="&#x259;" horiz-adv-x="584" 
d="M283 -12q-73 0 -127 32.5t-83.5 86.5t-29.5 119v21.5t1 25.5h386q-4 72 -46.5 109.5t-98.5 37.5q-45 0 -76 -20.5t-45 -55.5h-107q20 70 79.5 117t147.5 47q74 0 130.5 -32.5t88.5 -90.5t32 -135q0 -78 -31.5 -137t-88.5 -92t-132 -33zM284 75q54 0 95 31.5t50 94.5h-280
q3 -58 41 -92t94 -34z" />
    <glyph glyph-name="f" unicode="f" horiz-adv-x="346" 
d="M92 0v407h-71v89h71v72q0 81 40.5 116.5t114.5 35.5h52v-90h-36q-35 0 -50 -14.5t-15 -48.5v-71h114v-89h-114v-407h-106z" />
    <glyph glyph-name="g" unicode="g" horiz-adv-x="561" 
d="M270 152q-39 0 -72 9l-43 -42q11 -7 27 -12t45 -9t79 -8q99 -9 143 -47.5t44 -102.5q0 -44 -23.5 -83.5t-73 -64t-126.5 -24.5q-104 0 -168.5 39.5t-64.5 119.5q0 31 16.5 61.5t52.5 57.5q-21 9 -36.5 19.5t-27.5 21.5v24l86 88q-58 50 -58 131q0 49 23.5 89.5t68.5 64.5
t108 24q42 0 78 -12h185v-70l-88 -5q24 -41 24 -91t-23.5 -90t-68 -64t-107.5 -24zM270 235q46 0 74.5 24.5t28.5 69.5q0 46 -28.5 70t-74.5 24q-47 0 -75.5 -24t-28.5 -70q0 -45 28.5 -69.5t75.5 -24.5zM137 -63q0 -43 38 -64.5t95 -21.5q55 0 89 23.5t34 62.5
q0 29 -23 49.5t-87 25.5q-48 3 -85 9q-35 -19 -48 -41t-13 -43z" />
    <glyph glyph-name="gbreve" unicode="&#x11f;" horiz-adv-x="561" 
d="M270 152q-39 0 -72 9l-43 -42q11 -7 27 -12t45 -9t79 -8q99 -9 143 -47.5t44 -102.5q0 -44 -23.5 -83.5t-73 -64t-126.5 -24.5q-104 0 -168.5 39.5t-64.5 119.5q0 31 16.5 61.5t52.5 57.5q-21 9 -36.5 19.5t-27.5 21.5v24l86 88q-58 50 -58 131q0 49 23.5 89.5t68.5 64.5
t108 24q42 0 78 -12h185v-70l-88 -5q24 -41 24 -91t-23.5 -90t-68 -64t-107.5 -24zM270 235q46 0 74.5 24.5t28.5 69.5q0 46 -28.5 70t-74.5 24q-47 0 -75.5 -24t-28.5 -70q0 -45 28.5 -69.5t75.5 -24.5zM137 -63q0 -43 38 -64.5t95 -21.5q55 0 89 23.5t34 62.5
q0 29 -23 49.5t-87 25.5q-48 3 -85 9q-35 -19 -48 -41t-13 -43zM269 549q-70 0 -108.5 39.5t-38.5 101.5v15h59q0 -36 20 -55.5t68 -19.5q49 0 69 19.5t20 55.5h60v-15q0 -63 -39 -102t-110 -39z" />
    <glyph glyph-name="uni0123" unicode="&#x123;" horiz-adv-x="561" 
d="M231 596q-13 53 -13 97q0 120 108 120v-46q-49 0 -49 -56v-22h52v-93h-98zM270 152q-39 0 -72 9l-43 -42q11 -7 27 -12t45 -9t79 -8q99 -9 143 -47.5t44 -102.5q0 -44 -23.5 -83.5t-73 -64t-126.5 -24.5q-104 0 -168.5 39.5t-64.5 119.5q0 31 16.5 61.5t52.5 57.5
q-21 9 -36.5 19.5t-27.5 21.5v24l86 88q-58 50 -58 131q0 49 23.5 89.5t68.5 64.5t108 24q42 0 78 -12h185v-70l-88 -5q24 -41 24 -91t-23.5 -90t-68 -64t-107.5 -24zM270 235q46 0 74.5 24.5t28.5 69.5q0 46 -28.5 70t-74.5 24q-47 0 -75.5 -24t-28.5 -70q0 -45 28.5 -69.5
t75.5 -24.5zM137 -63q0 -43 38 -64.5t95 -21.5q55 0 89 23.5t34 62.5q0 29 -23 49.5t-87 25.5q-48 3 -85 9q-35 -19 -48 -41t-13 -43z" />
    <glyph glyph-name="gdotaccent" unicode="&#x121;" horiz-adv-x="561" 
d="M270 152q-39 0 -72 9l-43 -42q11 -7 27 -12t45 -9t79 -8q99 -9 143 -47.5t44 -102.5q0 -44 -23.5 -83.5t-73 -64t-126.5 -24.5q-104 0 -168.5 39.5t-64.5 119.5q0 31 16.5 61.5t52.5 57.5q-21 9 -36.5 19.5t-27.5 21.5v24l86 88q-58 50 -58 131q0 49 23.5 89.5t68.5 64.5
t108 24q42 0 78 -12h185v-70l-88 -5q24 -41 24 -91t-23.5 -90t-68 -64t-107.5 -24zM270 235q46 0 74.5 24.5t28.5 69.5q0 46 -28.5 70t-74.5 24q-47 0 -75.5 -24t-28.5 -70q0 -45 28.5 -69.5t75.5 -24.5zM137 -63q0 -43 38 -64.5t95 -21.5q55 0 89 23.5t34 62.5
q0 29 -23 49.5t-87 25.5q-48 3 -85 9q-35 -19 -48 -41t-13 -43zM270 561q-23 0 -39.5 16.5t-16.5 39.5t16.5 39.5t39.5 16.5t39.5 -16.5t16.5 -39.5t-16.5 -39.5t-39.5 -16.5z" />
    <glyph glyph-name="h" unicode="h" horiz-adv-x="590" 
d="M67 0v720h106v-304q25 43 69.5 67.5t98.5 24.5q89 0 140 -56t51 -167v-285h-105v274q0 144 -115 144q-60 0 -99.5 -42t-39.5 -120v-256h-106z" />
    <glyph glyph-name="i" unicode="i" horiz-adv-x="253" 
d="M127 590q-30 0 -49.5 18.5t-19.5 46.5t19.5 46.5t49.5 18.5t49.5 -18.5t19.5 -46.5t-19.5 -46.5t-49.5 -18.5zM74 0v496h106v-496h-106z" />
    <glyph glyph-name="dotlessi" unicode="&#x131;" horiz-adv-x="240" 
d="M67 0v496h106v-496h-106z" />
    <glyph glyph-name="iacute" unicode="&#xed;" horiz-adv-x="240" 
d="M67 0v496h106v-496h-106zM92 537v76l218 124v-88z" />
    <glyph glyph-name="ibreve" unicode="&#x12d;" horiz-adv-x="240" 
d="M67 0v496h106v-496h-106zM120 549q-70 0 -108.5 39.5t-38.5 101.5v15h59q0 -36 20 -55.5t68 -19.5q49 0 69 19.5t20 55.5h60v-15q0 -63 -39 -102t-110 -39z" />
    <glyph glyph-name="icircumflex" unicode="&#xee;" horiz-adv-x="240" 
d="M67 0v496h106v-496h-106zM-21 547v79l141 81l142 -81v-79l-142 83z" />
    <glyph glyph-name="idieresis" unicode="&#xef;" horiz-adv-x="240" 
d="M67 0v496h106v-496h-106zM206 568q-23 0 -39.5 16t-16.5 39q0 24 16.5 40t39.5 16t39 -16t16 -40q0 -23 -16 -39t-39 -16zM36 568q-24 0 -40 16t-16 39q0 24 16 40t40 16q23 0 39.5 -16t16.5 -40q0 -23 -16.5 -39t-39.5 -16z" />
    <glyph glyph-name="igrave" unicode="&#xec;" horiz-adv-x="240" 
d="M67 0v496h106v-496h-106zM168 537l-218 112v88l218 -124v-76z" />
    <glyph glyph-name="imacron" unicode="&#x12b;" horiz-adv-x="240" 
d="M67 0v496h106v-496h-106zM-60 585v77h361v-77h-361z" />
    <glyph glyph-name="iogonek" unicode="&#x12f;" horiz-adv-x="253" 
d="M127 590q-30 0 -49.5 18.5t-19.5 46.5t19.5 46.5t49.5 18.5t49.5 -18.5t19.5 -46.5t-19.5 -46.5t-49.5 -18.5zM74 0v496h106v-496h-106zM103 -206q-50 0 -87.5 23.5t-37.5 76.5q0 38 27.5 71.5t99.5 65.5l50 22l25 -52l-55 -27q-36 -18 -50 -35t-14 -35q0 -21 15 -33
t40 -12q31 0 68 15v-66q-18 -6 -39 -10t-42 -4z" />
    <glyph glyph-name="itilde" unicode="&#x129;" horiz-adv-x="240" 
d="M67 0v496h106v-496h-106zM177 550q-27 0 -46 11.5t-35.5 23t-36.5 11.5q-37 0 -43 -45h-59q9 58 36.5 85.5t69.5 27.5q27 0 46 -11.5t35.5 -23t37.5 -11.5q17 0 28.5 11t14.5 34h59q-8 -57 -36.5 -85t-70.5 -28z" />
    <glyph glyph-name="j" unicode="j" horiz-adv-x="255" 
d="M130 590q-30 0 -49.5 18.5t-19.5 46.5t19.5 46.5t49.5 18.5t49.5 -18.5t19.5 -46.5t-19.5 -46.5t-49.5 -18.5zM-28 -220v90h39q35 0 50 14.5t15 48.5v563h106v-564q0 -81 -41 -116.5t-114 -35.5h-55z" />
    <glyph glyph-name="k" unicode="k" horiz-adv-x="536" 
d="M67 0v720h106v-429l190 205h127l-211 -225l242 -271h-134l-214 254v-254h-106z" />
    <glyph glyph-name="uni0137" unicode="&#x137;" horiz-adv-x="536" 
d="M67 0v720h106v-429l190 205h127l-211 -225l242 -271h-134l-214 254v-254h-106zM218 -256v46q48 0 48 59v15h-50v88h98q12 -46 12 -85q0 -123 -108 -123z" />
    <glyph glyph-name="l" unicode="l" horiz-adv-x="240" 
d="M67 0v720h106v-720h-106z" />
    <glyph glyph-name="lacute" unicode="&#x13a;" horiz-adv-x="240" 
d="M67 0v720h106v-720h-106zM92 761v76l218 124v-88z" />
    <glyph glyph-name="lcaron" unicode="&#x13e;" horiz-adv-x="372" 
d="M250 523v46q49 0 49 56v22h-52v93h98q7 -27 10 -51.5t3 -45.5q0 -120 -108 -120zM67 0v720h106v-720h-106z" />
    <glyph glyph-name="uni013C" unicode="&#x13c;" horiz-adv-x="253" 
d="M67 0v720h106v-720h-106zM72 -256v46q49 0 49 59v15h-50v88h98q12 -45 12 -85q0 -123 -109 -123z" />
    <glyph glyph-name="ldot" unicode="&#x140;" horiz-adv-x="370" 
d="M74 0v720h106v-720h-106zM284 311q-24 0 -40 16t-16 39q0 24 16 40.5t40 16.5t40 -16.5t16 -40.5q0 -23 -16 -39t-40 -16z" />
    <glyph glyph-name="lslash" unicode="&#x142;" horiz-adv-x="270" 
d="M82 0v339l-72 -27v87l72 27v294h106v-254l72 27v-87l-72 -27v-379h-106z" />
    <glyph glyph-name="m" unicode="m" horiz-adv-x="916" 
d="M67 0v496h94l9 -70q24 38 63.5 60t91.5 22q118 0 164 -93q27 43 72.5 68t98.5 25q93 0 146 -56t53 -167v-285h-106v274q0 144 -110 144q-56 0 -91.5 -42t-35.5 -120v-256h-106v274q0 144 -111 144q-55 0 -90.5 -42t-35.5 -120v-256h-106z" />
    <glyph glyph-name="n" unicode="n" horiz-adv-x="590" 
d="M67 0v496h94l8 -87q23 46 67.5 72.5t102.5 26.5q90 0 141.5 -56t51.5 -167v-285h-105v274q0 144 -118 144q-59 0 -97.5 -42t-38.5 -120v-256h-106z" />
    <glyph glyph-name="nacute" unicode="&#x144;" horiz-adv-x="590" 
d="M67 0v496h94l8 -87q23 46 67.5 72.5t102.5 26.5q90 0 141.5 -56t51.5 -167v-285h-105v274q0 144 -118 144q-59 0 -97.5 -42t-38.5 -120v-256h-106zM288 537v76l218 124v-88z" />
    <glyph glyph-name="ncaron" unicode="&#x148;" horiz-adv-x="590" 
d="M67 0v496h94l8 -87q23 46 67.5 72.5t102.5 26.5q90 0 141.5 -56t51.5 -167v-285h-105v274q0 144 -118 144q-59 0 -97.5 -42t-38.5 -120v-256h-106zM316 546l-141 81v78l141 -84l142 84v-78z" />
    <glyph glyph-name="uni0146" unicode="&#x146;" horiz-adv-x="590" 
d="M67 0v496h94l8 -87q23 46 67.5 72.5t102.5 26.5q90 0 141.5 -56t51.5 -167v-285h-105v274q0 144 -118 144q-59 0 -97.5 -42t-38.5 -120v-256h-106zM261 -256v46q49 0 49 59v15h-51v88h98q12 -45 12 -85q0 -123 -108 -123z" />
    <glyph glyph-name="ntilde" unicode="&#xf1;" horiz-adv-x="590" 
d="M67 0v496h94l8 -87q23 46 67.5 72.5t102.5 26.5q90 0 141.5 -56t51.5 -167v-285h-105v274q0 144 -118 144q-59 0 -97.5 -42t-38.5 -120v-256h-106zM373 550q-27 0 -46 11.5t-35.5 23t-36.5 11.5q-37 0 -43 -45h-59q9 58 36.5 85.5t69.5 27.5q27 0 46 -11.5t35.5 -23
t37.5 -11.5q17 0 28.5 11t14.5 34h59q-8 -57 -36.5 -85t-70.5 -28z" />
    <glyph glyph-name="o" unicode="o" horiz-adv-x="599" 
d="M299 -12q-71 0 -127.5 32.5t-89.5 91t-33 136.5t33.5 136.5t90.5 91t127 32.5q71 0 127.5 -32.5t90 -91t33.5 -136.5t-33.5 -136.5t-90.5 -91t-128 -32.5zM299 79q38 0 70.5 19t52.5 56.5t20 93.5t-19.5 93.5t-52 56.5t-70.5 19t-70.5 -19t-52.5 -56.5t-20 -93.5
t20 -93.5t52 -56.5t70 -19z" />
    <glyph glyph-name="oacute" unicode="&#xf3;" horiz-adv-x="599" 
d="M299 -12q-71 0 -127.5 32.5t-89.5 91t-33 136.5t33.5 136.5t90.5 91t127 32.5q71 0 127.5 -32.5t90 -91t33.5 -136.5t-33.5 -136.5t-90.5 -91t-128 -32.5zM299 79q38 0 70.5 19t52.5 56.5t20 93.5t-19.5 93.5t-52 56.5t-70.5 19t-70.5 -19t-52.5 -56.5t-20 -93.5
t20 -93.5t52 -56.5t70 -19zM272 537v76l218 124v-88z" />
    <glyph glyph-name="obreve" unicode="&#x14f;" horiz-adv-x="599" 
d="M299 -12q-71 0 -127.5 32.5t-89.5 91t-33 136.5t33.5 136.5t90.5 91t127 32.5q71 0 127.5 -32.5t90 -91t33.5 -136.5t-33.5 -136.5t-90.5 -91t-128 -32.5zM299 79q38 0 70.5 19t52.5 56.5t20 93.5t-19.5 93.5t-52 56.5t-70.5 19t-70.5 -19t-52.5 -56.5t-20 -93.5
t20 -93.5t52 -56.5t70 -19zM300 549q-70 0 -108.5 39.5t-38.5 101.5v15h59q0 -36 20 -55.5t68 -19.5q49 0 69 19.5t20 55.5h60v-15q0 -63 -39 -102t-110 -39z" />
    <glyph glyph-name="ocircumflex" unicode="&#xf4;" horiz-adv-x="599" 
d="M299 -12q-71 0 -127.5 32.5t-89.5 91t-33 136.5t33.5 136.5t90.5 91t127 32.5q71 0 127.5 -32.5t90 -91t33.5 -136.5t-33.5 -136.5t-90.5 -91t-128 -32.5zM299 79q38 0 70.5 19t52.5 56.5t20 93.5t-19.5 93.5t-52 56.5t-70.5 19t-70.5 -19t-52.5 -56.5t-20 -93.5
t20 -93.5t52 -56.5t70 -19zM159 547v79l141 81l142 -81v-79l-142 83z" />
    <glyph glyph-name="odieresis" unicode="&#xf6;" horiz-adv-x="599" 
d="M299 -12q-71 0 -127.5 32.5t-89.5 91t-33 136.5t33.5 136.5t90.5 91t127 32.5q71 0 127.5 -32.5t90 -91t33.5 -136.5t-33.5 -136.5t-90.5 -91t-128 -32.5zM299 79q38 0 70.5 19t52.5 56.5t20 93.5t-19.5 93.5t-52 56.5t-70.5 19t-70.5 -19t-52.5 -56.5t-20 -93.5
t20 -93.5t52 -56.5t70 -19zM386 568q-23 0 -39.5 16t-16.5 39q0 24 16.5 40t39.5 16t39 -16t16 -40q0 -23 -16 -39t-39 -16zM216 568q-24 0 -40 16t-16 39q0 24 16 40t40 16q23 0 39.5 -16t16.5 -40q0 -23 -16.5 -39t-39.5 -16z" />
    <glyph glyph-name="ograve" unicode="&#xf2;" horiz-adv-x="599" 
d="M299 -12q-71 0 -127.5 32.5t-89.5 91t-33 136.5t33.5 136.5t90.5 91t127 32.5q71 0 127.5 -32.5t90 -91t33.5 -136.5t-33.5 -136.5t-90.5 -91t-128 -32.5zM299 79q38 0 70.5 19t52.5 56.5t20 93.5t-19.5 93.5t-52 56.5t-70.5 19t-70.5 -19t-52.5 -56.5t-20 -93.5
t20 -93.5t52 -56.5t70 -19zM348 537l-218 112v88l218 -124v-76z" />
    <glyph glyph-name="ohungarumlaut" unicode="&#x151;" horiz-adv-x="599" 
d="M299 -12q-71 0 -127.5 32.5t-89.5 91t-33 136.5t33.5 136.5t90.5 91t127 32.5q71 0 127.5 -32.5t90 -91t33.5 -136.5t-33.5 -136.5t-90.5 -91t-128 -32.5zM299 79q38 0 70.5 19t52.5 56.5t20 93.5t-19.5 93.5t-52 56.5t-70.5 19t-70.5 -19t-52.5 -56.5t-20 -93.5
t20 -93.5t52 -56.5t70 -19zM335 547l76 164h89l-97 -164h-68zM177 547l69 164h88l-88 -164h-69z" />
    <glyph glyph-name="omacron" unicode="&#x14d;" horiz-adv-x="599" 
d="M299 -12q-71 0 -127.5 32.5t-89.5 91t-33 136.5t33.5 136.5t90.5 91t127 32.5q71 0 127.5 -32.5t90 -91t33.5 -136.5t-33.5 -136.5t-90.5 -91t-128 -32.5zM299 79q38 0 70.5 19t52.5 56.5t20 93.5t-19.5 93.5t-52 56.5t-70.5 19t-70.5 -19t-52.5 -56.5t-20 -93.5
t20 -93.5t52 -56.5t70 -19zM120 585v77h361v-77h-361z" />
    <glyph glyph-name="oslash" unicode="&#xf8;" horiz-adv-x="592" 
d="M36 0l66 76q-27 33 -42 76.5t-15 95.5q0 78 33.5 136.5t90.5 91t127 32.5q81 0 143 -42l26 30h90l-65 -76q26 -33 41.5 -76.5t15.5 -95.5q0 -78 -33.5 -136.5t-90.5 -91t-128 -32.5q-80 0 -142 42l-26 -30h-91zM148 248q0 -29 5 -53t15 -43l212 245q-36 26 -84 26
q-39 0 -73 -19.5t-54.5 -58.5t-20.5 -97zM295 73q40 0 73.5 19.5t54.5 58.5t21 97q0 29 -5.5 52.5t-14.5 43.5l-212 -245q36 -26 83 -26z" />
    <glyph glyph-name="otilde" unicode="&#xf5;" horiz-adv-x="599" 
d="M299 -12q-71 0 -127.5 32.5t-89.5 91t-33 136.5t33.5 136.5t90.5 91t127 32.5q71 0 127.5 -32.5t90 -91t33.5 -136.5t-33.5 -136.5t-90.5 -91t-128 -32.5zM299 79q38 0 70.5 19t52.5 56.5t20 93.5t-19.5 93.5t-52 56.5t-70.5 19t-70.5 -19t-52.5 -56.5t-20 -93.5
t20 -93.5t52 -56.5t70 -19zM357 550q-27 0 -46 11.5t-35.5 23t-36.5 11.5q-37 0 -43 -45h-59q9 58 36.5 85.5t69.5 27.5q27 0 46 -11.5t35.5 -23t37.5 -11.5q17 0 28.5 11t14.5 34h59q-8 -57 -36.5 -85t-70.5 -28z" />
    <glyph glyph-name="oe" unicode="&#x153;" horiz-adv-x="977" 
d="M299 -12q-71 0 -127.5 32.5t-89.5 91t-33 136.5t33.5 136.5t90.5 91t127 32.5q63 0 112.5 -26.5t79.5 -75.5q31 48 83.5 75t118.5 27q73 0 127 -32.5t83.5 -86.5t29.5 -119v-21.5t-1 -25.5h-386q4 -72 47 -109.5t98 -37.5q50 0 82.5 25t47.5 65h104q-13 -50 -44.5 -90.5
t-79 -64t-109.5 -23.5q-65 0 -117 27t-84 75q-31 -48 -80.5 -75t-112.5 -27zM549 295h279q-3 58 -41 92t-94 34q-54 0 -95 -32t-49 -94zM299 79q38 0 70.5 19t52.5 56.5t20 93.5t-19.5 93.5t-52 56.5t-70.5 19t-70.5 -19t-52.5 -56.5t-20 -93.5t20 -93.5t52 -56.5t70 -19z
" />
    <glyph glyph-name="p" unicode="p" horiz-adv-x="640" 
d="M67 -220v716h95l11 -77q24 35 66 62t108 27q72 0 127 -34t86.5 -93t31.5 -134t-31.5 -133.5t-86.5 -92t-128 -33.5q-58 0 -102.5 23t-70.5 65v-296h-106zM328 80q68 0 112 46.5t44 121.5q0 49 -20 87t-55 59.5t-81 21.5q-68 0 -111.5 -47t-43.5 -121q0 -75 43.5 -121.5
t111.5 -46.5z" />
    <glyph glyph-name="thorn" unicode="&#xfe;" horiz-adv-x="640" 
d="M67 -220v940h106v-301q24 35 66 62t108 27q72 0 127 -34t86.5 -93t31.5 -134t-31.5 -133.5t-86.5 -92t-128 -33.5q-58 0 -102.5 23t-70.5 65v-296h-106zM328 80q68 0 112 46.5t44 121.5q0 49 -20 87t-55 59.5t-81 21.5q-68 0 -111.5 -47t-43.5 -121q0 -75 43.5 -121.5
t111.5 -46.5z" />
    <glyph glyph-name="q" unicode="q" horiz-adv-x="640" 
d="M467 -220v297q-24 -35 -66 -62t-108 -27q-72 0 -127 34t-86 93t-31 134t31 133.5t86.5 92t127.5 33.5q59 0 103.5 -23t69.5 -65l11 76h95v-716h-106zM312 80q68 0 111.5 47t43.5 121q0 75 -43.5 121.5t-111.5 46.5t-112 -46.5t-44 -121.5q0 -49 20 -87t55.5 -59.5
t80.5 -21.5z" />
    <glyph glyph-name="r" unicode="r" horiz-adv-x="380" 
d="M67 0v496h95l9 -94q26 49 72.5 77.5t112.5 28.5v-111h-29q-44 0 -78.5 -14.5t-55 -49t-20.5 -95.5v-238h-106z" />
    <glyph glyph-name="racute" unicode="&#x155;" horiz-adv-x="380" 
d="M67 0v496h95l9 -94q26 49 72.5 77.5t112.5 28.5v-111h-29q-44 0 -78.5 -14.5t-55 -49t-20.5 -95.5v-238h-106zM181 537v76l218 124v-88z" />
    <glyph glyph-name="rcaron" unicode="&#x159;" horiz-adv-x="380" 
d="M67 0v496h95l9 -94q26 49 72.5 77.5t112.5 28.5v-111h-29q-44 0 -78.5 -14.5t-55 -49t-20.5 -95.5v-238h-106zM228 546l-141 81v78l141 -84l142 84v-78z" />
    <glyph glyph-name="uni0157" unicode="&#x157;" horiz-adv-x="380" 
d="M67 0v496h95l9 -94q26 49 72.5 77.5t112.5 28.5v-111h-29q-44 0 -78.5 -14.5t-55 -49t-20.5 -95.5v-238h-106zM76 -256v46q49 0 49 59v15h-51v88h98q7 -23 9.5 -44.5t2.5 -40.5q0 -123 -108 -123z" />
    <glyph glyph-name="s" unicode="s" horiz-adv-x="512" 
d="M265 -12q-94 0 -155 46t-70 122h107q8 -34 38 -58.5t79 -24.5q48 0 70 20t22 46q0 38 -30.5 51.5t-84.5 24.5q-42 9 -83.5 24t-69 42.5t-27.5 74.5q0 65 50 108.5t140 43.5q83 0 134.5 -40t60.5 -113h-102q-5 32 -29.5 50t-65.5 18q-40 0 -62 -16.5t-22 -42.5t30.5 -41
t80.5 -27q50 -11 92.5 -25.5t68.5 -42.5t26 -82q1 -68 -52.5 -113t-145.5 -45z" />
    <glyph glyph-name="sacute" unicode="&#x15b;" horiz-adv-x="512" 
d="M265 -12q-94 0 -155 46t-70 122h107q8 -34 38 -58.5t79 -24.5q48 0 70 20t22 46q0 38 -30.5 51.5t-84.5 24.5q-42 9 -83.5 24t-69 42.5t-27.5 74.5q0 65 50 108.5t140 43.5q83 0 134.5 -40t60.5 -113h-102q-5 32 -29.5 50t-65.5 18q-40 0 -62 -16.5t-22 -42.5t30.5 -41
t80.5 -27q50 -11 92.5 -25.5t68.5 -42.5t26 -82q1 -68 -52.5 -113t-145.5 -45zM207 537v76l218 124v-88z" />
    <glyph glyph-name="scaron" unicode="&#x161;" horiz-adv-x="512" 
d="M265 -12q-94 0 -155 46t-70 122h107q8 -34 38 -58.5t79 -24.5q48 0 70 20t22 46q0 38 -30.5 51.5t-84.5 24.5q-42 9 -83.5 24t-69 42.5t-27.5 74.5q0 65 50 108.5t140 43.5q83 0 134.5 -40t60.5 -113h-102q-5 32 -29.5 50t-65.5 18q-40 0 -62 -16.5t-22 -42.5t30.5 -41
t80.5 -27q50 -11 92.5 -25.5t68.5 -42.5t26 -82q1 -68 -52.5 -113t-145.5 -45zM254 546l-141 81v78l141 -84l142 84v-78z" />
    <glyph glyph-name="scedilla" unicode="&#x15f;" horiz-adv-x="512" 
d="M265 -12q-94 0 -155 46t-70 122h107q8 -34 38 -58.5t79 -24.5q48 0 70 20t22 46q0 38 -30.5 51.5t-84.5 24.5q-42 9 -83.5 24t-69 42.5t-27.5 74.5q0 65 50 108.5t140 43.5q83 0 134.5 -40t60.5 -113h-102q-5 32 -29.5 50t-65.5 18q-40 0 -62 -16.5t-22 -42.5t30.5 -41
t80.5 -27q50 -11 92.5 -25.5t68.5 -42.5t26 -82q1 -68 -52.5 -113t-145.5 -45zM178 -262v64h102q61 0 61 42q0 39 -61 39h-55v123h68v-63q54 1 91.5 -24t37.5 -77q0 -51 -36.5 -77.5t-88.5 -26.5h-119z" />
    <glyph glyph-name="uni0219" unicode="&#x219;" horiz-adv-x="512" 
d="M265 -12q-94 0 -155 46t-70 122h107q8 -34 38 -58.5t79 -24.5q48 0 70 20t22 46q0 38 -30.5 51.5t-84.5 24.5q-42 9 -83.5 24t-69 42.5t-27.5 74.5q0 65 50 108.5t140 43.5q83 0 134.5 -40t60.5 -113h-102q-5 32 -29.5 50t-65.5 18q-40 0 -62 -16.5t-22 -42.5t30.5 -41
t80.5 -27q50 -11 92.5 -25.5t68.5 -42.5t26 -82q1 -68 -52.5 -113t-145.5 -45zM221 -256v46q48 0 48 59v15h-50v88h98q12 -45 12 -85q0 -123 -108 -123z" />
    <glyph glyph-name="germandbls" unicode="&#xdf;" horiz-adv-x="685" 
d="M457 -10q-88 0 -144.5 48t-65.5 134h102q4 -46 32 -73.5t75 -27.5q43 0 66.5 20t23.5 57q0 33 -21.5 54t-76.5 40q-81 27 -116 56t-35 74q0 30 14 49t33.5 33t39.5 27t34 29.5t14 42.5q0 42 -33 66t-90 24q-69 0 -102 -36.5t-33 -101.5v-505h-106v515q0 63 28.5 112
t83 77t133.5 28q71 0 121 -23t76.5 -61.5t26.5 -84.5q0 -33 -13.5 -55t-33 -37.5t-39.5 -27.5t-33.5 -24.5t-13.5 -30.5q0 -14 8.5 -25t32 -22.5t67.5 -26.5q74 -26 106.5 -64t32.5 -96q0 -73 -52 -118.5t-142 -45.5z" />
    <glyph glyph-name="t" unicode="t" horiz-adv-x="404" 
d="M275 0q-73 0 -116 35.5t-43 126.5v245h-85v89h85l13 126h93v-126h140v-89h-140v-245q0 -41 17.5 -56.5t60.5 -15.5h57v-90h-82z" />
    <glyph glyph-name="tcaron" unicode="&#x165;" horiz-adv-x="404" 
d="M278 594v47q49 0 49 37v20h-52v92h99q6 -27 9.5 -47.5t3.5 -42.5q0 -106 -109 -106zM275 0q-73 0 -116 35.5t-43 126.5v245h-85v89h85l13 126h93v-126h140v-89h-140v-245q0 -41 17.5 -56.5t60.5 -15.5h57v-90h-82z" />
    <glyph glyph-name="uni0163" unicode="&#x163;" horiz-adv-x="404" 
d="M165 -263v64h102q61 0 61 42q0 40 -61 40h-55v125q-45 12 -70.5 48.5t-25.5 105.5v245h-85v89h85l13 126h93v-126h140v-89h-140v-245q0 -41 17.5 -56.5t60.5 -15.5h57v-90h-77v-58q54 1 91.5 -23.5t37.5 -76.5q0 -51 -36.5 -78t-88.5 -27h-119z" />
    <glyph glyph-name="uni021B" unicode="&#x21b;" horiz-adv-x="404" 
d="M275 0q-73 0 -116 35.5t-43 126.5v245h-85v89h85l13 126h93v-126h140v-89h-140v-245q0 -41 17.5 -56.5t60.5 -15.5h57v-90h-82zM198 -256v46q48 0 48 59v15h-50v88h97q7 -23 10 -44.5t3 -40.5q0 -123 -108 -123z" />
    <glyph glyph-name="u" unicode="u" horiz-adv-x="590" 
d="M250 -12q-90 0 -141.5 56t-51.5 167v285h106v-274q0 -144 118 -144q59 0 97 42t38 120v256h106v-496h-94l-8 87q-23 -46 -67.5 -72.5t-102.5 -26.5z" />
    <glyph glyph-name="uacute" unicode="&#xfa;" horiz-adv-x="590" 
d="M250 -12q-90 0 -141.5 56t-51.5 167v285h106v-274q0 -144 118 -144q59 0 97 42t38 120v256h106v-496h-94l-8 87q-23 -46 -67.5 -72.5t-102.5 -26.5zM240 537v76l218 124v-88z" />
    <glyph glyph-name="ubreve" unicode="&#x16d;" horiz-adv-x="590" 
d="M250 -12q-90 0 -141.5 56t-51.5 167v285h106v-274q0 -144 118 -144q59 0 97 42t38 120v256h106v-496h-94l-8 87q-23 -46 -67.5 -72.5t-102.5 -26.5zM287 549q-70 0 -108.5 39.5t-38.5 101.5v15h59q0 -36 20 -55.5t68 -19.5q49 0 69 19.5t20 55.5h60v-15q0 -63 -39 -102
t-110 -39z" />
    <glyph glyph-name="ucircumflex" unicode="&#xfb;" horiz-adv-x="590" 
d="M250 -12q-90 0 -141.5 56t-51.5 167v285h106v-274q0 -144 118 -144q59 0 97 42t38 120v256h106v-496h-94l-8 87q-23 -46 -67.5 -72.5t-102.5 -26.5zM146 547v79l141 81l142 -81v-79l-142 83z" />
    <glyph glyph-name="udieresis" unicode="&#xfc;" horiz-adv-x="590" 
d="M250 -12q-90 0 -141.5 56t-51.5 167v285h106v-274q0 -144 118 -144q59 0 97 42t38 120v256h106v-496h-94l-8 87q-23 -46 -67.5 -72.5t-102.5 -26.5zM373 568q-23 0 -39.5 16t-16.5 39q0 24 16.5 40t39.5 16t39 -16t16 -40q0 -23 -16 -39t-39 -16zM203 568q-24 0 -40 16
t-16 39q0 24 16 40t40 16q23 0 39.5 -16t16.5 -40q0 -23 -16.5 -39t-39.5 -16z" />
    <glyph glyph-name="ugrave" unicode="&#xf9;" horiz-adv-x="590" 
d="M250 -12q-90 0 -141.5 56t-51.5 167v285h106v-274q0 -144 118 -144q59 0 97 42t38 120v256h106v-496h-94l-8 87q-23 -46 -67.5 -72.5t-102.5 -26.5zM335 537l-218 112v88l218 -124v-76z" />
    <glyph glyph-name="uhungarumlaut" unicode="&#x171;" horiz-adv-x="590" 
d="M250 -12q-90 0 -141.5 56t-51.5 167v285h106v-274q0 -144 118 -144q59 0 97 42t38 120v256h106v-496h-94l-8 87q-23 -46 -67.5 -72.5t-102.5 -26.5zM322 547l76 164h89l-97 -164h-68zM164 547l69 164h88l-88 -164h-69z" />
    <glyph glyph-name="umacron" unicode="&#x16b;" horiz-adv-x="590" 
d="M250 -12q-90 0 -141.5 56t-51.5 167v285h106v-274q0 -144 118 -144q59 0 97 42t38 120v256h106v-496h-94l-8 87q-23 -46 -67.5 -72.5t-102.5 -26.5zM106 585v77h361v-77h-361z" />
    <glyph glyph-name="uogonek" unicode="&#x173;" horiz-adv-x="590" 
d="M250 -12q-90 0 -141.5 56t-51.5 167v285h106v-274q0 -144 118 -144q59 0 97 42t38 120v256h106v-496h-94l-8 87q-23 -46 -67.5 -72.5t-102.5 -26.5zM445 -207q-49 0 -87 23.5t-38 76.5q0 38 28 71.5t100 65.5l49 22l25 -52l-55 -27q-35 -18 -49.5 -35t-14.5 -35
q0 -21 15 -33t40 -12q32 0 69 15v-66q-18 -6 -39 -10t-43 -4z" />
    <glyph glyph-name="uring" unicode="&#x16f;" horiz-adv-x="590" 
d="M250 -12q-90 0 -141.5 56t-51.5 167v285h106v-274q0 -144 118 -144q59 0 97 42t38 120v256h106v-496h-94l-8 87q-23 -46 -67.5 -72.5t-102.5 -26.5zM287 552q-44 0 -76.5 28.5t-32.5 78.5t32.5 79t76.5 29q46 0 78 -29t32 -79t-32 -78.5t-78 -28.5zM287 603q23 0 39 15.5
t16 40.5q0 27 -16 42t-39 15q-22 0 -38 -15t-16 -42q0 -25 16 -40.5t38 -15.5z" />
    <glyph glyph-name="utilde" unicode="&#x169;" horiz-adv-x="590" 
d="M250 -12q-90 0 -141.5 56t-51.5 167v285h106v-274q0 -144 118 -144q59 0 97 42t38 120v256h106v-496h-94l-8 87q-23 -46 -67.5 -72.5t-102.5 -26.5zM351 550q-28 0 -46.5 11.5t-35 23t-37.5 11.5q-36 0 -42 -45h-59q8 58 36 85.5t70 27.5q27 0 46 -11.5t35.5 -23
t37.5 -11.5q16 0 28 11t15 34h59q-8 -57 -36.5 -85t-70.5 -28z" />
    <glyph glyph-name="v" unicode="v" horiz-adv-x="537" 
d="M206 0l-186 496h111l138 -395l138 395h110l-185 -496h-126z" />
    <glyph glyph-name="w" unicode="w" horiz-adv-x="778" 
d="M166 0l-146 496h106l96 -374l108 374h118l108 -374l96 374h106l-146 -496h-109l-114 390l-114 -390h-109z" />
    <glyph glyph-name="wacute" unicode="&#x1e83;" horiz-adv-x="778" 
d="M166 0l-146 496h106l96 -374l108 374h118l108 -374l96 374h106l-146 -496h-109l-114 390l-114 -390h-109zM342 537v76l218 124v-88z" />
    <glyph glyph-name="wcircumflex" unicode="&#x175;" horiz-adv-x="778" 
d="M166 0l-146 496h106l96 -374l108 374h118l108 -374l96 374h106l-146 -496h-109l-114 390l-114 -390h-109zM247 547v79l141 81l142 -81v-79l-142 83z" />
    <glyph glyph-name="wdieresis" unicode="&#x1e85;" horiz-adv-x="778" 
d="M166 0l-146 496h106l96 -374l108 374h118l108 -374l96 374h106l-146 -496h-109l-114 390l-114 -390h-109zM474 568q-23 0 -39.5 16t-16.5 39q0 24 16.5 40t39.5 16t39 -16t16 -40q0 -23 -16 -39t-39 -16zM304 568q-24 0 -40 16t-16 39q0 24 16 40t40 16q23 0 39.5 -16
t16.5 -40q0 -23 -16.5 -39t-39.5 -16z" />
    <glyph glyph-name="wgrave" unicode="&#x1e81;" horiz-adv-x="778" 
d="M166 0l-146 496h106l96 -374l108 374h118l108 -374l96 374h106l-146 -496h-109l-114 390l-114 -390h-109zM436 537l-218 112v88l218 -124v-76z" />
    <glyph glyph-name="x" unicode="x" horiz-adv-x="530" 
d="M19 0l176 248l-176 248h113l133 -190l132 190h114l-176 -248l176 -248h-114l-132 190l-133 -190h-113z" />
    <glyph glyph-name="y" unicode="y" horiz-adv-x="577" 
d="M125 -220l119 261h-29l-196 455h115l152 -367l159 367h112l-320 -716h-112z" />
    <glyph glyph-name="yacute" unicode="&#xfd;" horiz-adv-x="577" 
d="M125 -220l119 261h-29l-196 455h115l152 -367l159 367h112l-320 -716h-112zM242 537v76l218 124v-88z" />
    <glyph glyph-name="ycircumflex" unicode="&#x177;" horiz-adv-x="577" 
d="M125 -220l119 261h-29l-196 455h115l152 -367l159 367h112l-320 -716h-112zM148 547v79l141 81l142 -81v-79l-142 83z" />
    <glyph glyph-name="ydieresis" unicode="&#xff;" horiz-adv-x="577" 
d="M125 -220l119 261h-29l-196 455h115l152 -367l159 367h112l-320 -716h-112zM375 568q-23 0 -39.5 16t-16.5 39q0 24 16.5 40t39.5 16t39 -16t16 -40q0 -23 -16 -39t-39 -16zM205 568q-24 0 -40 16t-16 39q0 24 16 40t40 16q23 0 39.5 -16t16.5 -40q0 -23 -16.5 -39
t-39.5 -16z" />
    <glyph glyph-name="ygrave" unicode="&#x1ef3;" horiz-adv-x="577" 
d="M125 -220l119 261h-29l-196 455h115l152 -367l159 367h112l-320 -716h-112zM337 537l-218 112v88l218 -124v-76z" />
    <glyph glyph-name="uni1EF9" unicode="&#x1ef9;" horiz-adv-x="577" 
d="M125 -220l119 261h-29l-196 455h115l152 -367l159 367h112l-320 -716h-112zM353 550q-28 0 -46.5 11.5t-35 23t-37.5 11.5q-36 0 -42 -45h-59q8 58 36 85.5t70 27.5q27 0 46 -11.5t35.5 -23t37.5 -11.5q16 0 28 11t15 34h59q-8 -57 -36.5 -85t-70.5 -28z" />
    <glyph glyph-name="z" unicode="z" horiz-adv-x="466" 
d="M34 0v86l265 322h-261v88h381v-86l-267 -322h272v-88h-390z" />
    <glyph glyph-name="zacute" unicode="&#x17a;" horiz-adv-x="466" 
d="M34 0v86l265 322h-261v88h381v-86l-267 -322h272v-88h-390zM184 537v76l218 124v-88z" />
    <glyph glyph-name="zcaron" unicode="&#x17e;" horiz-adv-x="466" 
d="M34 0v86l265 322h-261v88h381v-86l-267 -322h272v-88h-390zM231 546l-141 81v78l141 -84l142 84v-78z" />
    <glyph glyph-name="zdotaccent" unicode="&#x17c;" horiz-adv-x="466" 
d="M34 0v86l265 322h-261v88h381v-86l-267 -322h272v-88h-390zM231 561q-23 0 -39.5 16.5t-16.5 39.5t16.5 39.5t39.5 16.5t39.5 -16.5t16.5 -39.5t-16.5 -39.5t-39.5 -16.5z" />
    <glyph glyph-name="a.ss02" horiz-adv-x="640" 
d="M293 -12q-72 0 -127 34t-86 93t-31 134t31 133.5t86.5 92t127.5 33.5q59 0 103.5 -23t69.5 -65l6 76h100v-496h-99l-7 77q-24 -35 -66 -62t-108 -27zM312 80q68 0 111.5 47t43.5 121q0 75 -43.5 121.5t-111.5 46.5t-112 -46.5t-44 -121.5q0 -49 20 -87t55.5 -59.5
t80.5 -21.5z" />
    <glyph glyph-name="aacute.ss02" horiz-adv-x="640" 
d="M293 -12q-72 0 -127 34t-86 93t-31 134t31 133.5t86.5 92t127.5 33.5q59 0 103.5 -23t69.5 -65l6 76h100v-496h-99l-7 77q-24 -35 -66 -62t-108 -27zM312 80q68 0 111.5 47t43.5 121q0 75 -43.5 121.5t-111.5 46.5t-112 -46.5t-44 -121.5q0 -49 20 -87t55.5 -59.5
t80.5 -21.5zM263 535v76l218 124v-88z" />
    <glyph glyph-name="abreve.ss02" horiz-adv-x="640" 
d="M293 -12q-72 0 -127 34t-86 93t-31 134t31 133.5t86.5 92t127.5 33.5q59 0 103.5 -23t69.5 -65l6 76h100v-496h-99l-7 77q-24 -35 -66 -62t-108 -27zM312 80q68 0 111.5 47t43.5 121q0 75 -43.5 121.5t-111.5 46.5t-112 -46.5t-44 -121.5q0 -49 20 -87t55.5 -59.5
t80.5 -21.5zM310 547q-70 0 -108.5 39.5t-38.5 101.5v15h59q0 -36 20 -55.5t68 -19.5q49 0 69 19.5t20 55.5h60v-15q0 -63 -39 -102t-110 -39z" />
    <glyph glyph-name="acircumflex.ss02" horiz-adv-x="640" 
d="M293 -12q-72 0 -127 34t-86 93t-31 134t31 133.5t86.5 92t127.5 33.5q59 0 103.5 -23t69.5 -65l6 76h100v-496h-99l-7 77q-24 -35 -66 -62t-108 -27zM312 80q68 0 111.5 47t43.5 121q0 75 -43.5 121.5t-111.5 46.5t-112 -46.5t-44 -121.5q0 -49 20 -87t55.5 -59.5
t80.5 -21.5zM169 545v79l141 81l142 -81v-79l-142 83z" />
    <glyph glyph-name="adieresis.ss02" horiz-adv-x="640" 
d="M293 -12q-72 0 -127 34t-86 93t-31 134t31 133.5t86.5 92t127.5 33.5q59 0 103.5 -23t69.5 -65l6 76h100v-496h-99l-7 77q-24 -35 -66 -62t-108 -27zM312 80q68 0 111.5 47t43.5 121q0 75 -43.5 121.5t-111.5 46.5t-112 -46.5t-44 -121.5q0 -49 20 -87t55.5 -59.5
t80.5 -21.5zM396 566q-23 0 -39.5 16t-16.5 39q0 24 16.5 40t39.5 16t39 -16t16 -40q0 -23 -16 -39t-39 -16zM226 566q-24 0 -40 16t-16 39q0 24 16 40t40 16q23 0 39.5 -16t16.5 -40q0 -23 -16.5 -39t-39.5 -16z" />
    <glyph glyph-name="agrave.ss02" horiz-adv-x="640" 
d="M293 -12q-72 0 -127 34t-86 93t-31 134t31 133.5t86.5 92t127.5 33.5q59 0 103.5 -23t69.5 -65l6 76h100v-496h-99l-7 77q-24 -35 -66 -62t-108 -27zM312 80q68 0 111.5 47t43.5 121q0 75 -43.5 121.5t-111.5 46.5t-112 -46.5t-44 -121.5q0 -49 20 -87t55.5 -59.5
t80.5 -21.5zM357 535l-218 112v88l218 -124v-76z" />
    <glyph glyph-name="amacron.ss02" horiz-adv-x="640" 
d="M293 -12q-72 0 -127 34t-86 93t-31 134t31 133.5t86.5 92t127.5 33.5q59 0 103.5 -23t69.5 -65l6 76h100v-496h-99l-7 77q-24 -35 -66 -62t-108 -27zM312 80q68 0 111.5 47t43.5 121q0 75 -43.5 121.5t-111.5 46.5t-112 -46.5t-44 -121.5q0 -49 20 -87t55.5 -59.5
t80.5 -21.5zM129 583v77h361v-77h-361z" />
    <glyph glyph-name="aogonek.ss02" horiz-adv-x="640" 
d="M293 -12q-72 0 -127 34t-86 93t-31 134t31 133.5t86.5 92t127.5 33.5q59 0 103.5 -23t69.5 -65l6 76h100v-496h-99l-7 77q-24 -35 -66 -62t-108 -27zM312 80q68 0 111.5 47t43.5 121q0 75 -43.5 121.5t-111.5 46.5t-112 -46.5t-44 -121.5q0 -49 20 -87t55.5 -59.5
t80.5 -21.5zM496 -207q-49 0 -87 23.5t-38 76.5q0 38 28 71.5t100 65.5l49 22l25 -52l-55 -27q-35 -18 -49.5 -35t-14.5 -35q0 -21 15 -33t40 -12q32 0 69 15v-66q-18 -6 -39 -10t-43 -4z" />
    <glyph glyph-name="aring.ss02" horiz-adv-x="640" 
d="M293 -12q-72 0 -127 34t-86 93t-31 134t31 133.5t86.5 92t127.5 33.5q59 0 103.5 -23t69.5 -65l6 76h100v-496h-99l-7 77q-24 -35 -66 -62t-108 -27zM312 80q68 0 111.5 47t43.5 121q0 75 -43.5 121.5t-111.5 46.5t-112 -46.5t-44 -121.5q0 -49 20 -87t55.5 -59.5
t80.5 -21.5zM310 550q-44 0 -76.5 28.5t-32.5 78.5t32.5 79t76.5 29q46 0 78 -29t32 -79t-32 -78.5t-78 -28.5zM310 601q23 0 39 15.5t16 40.5q0 27 -16 42t-39 15q-22 0 -38 -15t-16 -42q0 -25 16 -40.5t38 -15.5z" />
    <glyph glyph-name="atilde.ss02" horiz-adv-x="640" 
d="M293 -12q-72 0 -127 34t-86 93t-31 134t31 133.5t86.5 92t127.5 33.5q59 0 103.5 -23t69.5 -65l6 76h100v-496h-99l-7 77q-24 -35 -66 -62t-108 -27zM312 80q68 0 111.5 47t43.5 121q0 75 -43.5 121.5t-111.5 46.5t-112 -46.5t-44 -121.5q0 -49 20 -87t55.5 -59.5
t80.5 -21.5zM374 548q-28 0 -46.5 11.5t-35 23t-37.5 11.5q-36 0 -42 -45h-59q8 58 36 85.5t70 27.5q27 0 46 -11.5t35.5 -23t37.5 -11.5q16 0 28 11t15 34h59q-8 -57 -36.5 -85t-70.5 -28z" />
    <glyph glyph-name="ae.ss02" horiz-adv-x="1006" 
d="M298 -12q-75 0 -131 34t-87 93t-31 134t31 133.5t86.5 92t127.5 33.5q56 0 99.5 -21t69.5 -59l7 68h88v-58q65 70 170 70q71 0 124 -32.5t82 -86.5t29 -119v-21.5t-1 -25.5h-386q4 -72 47 -109.5t98 -37.5q50 0 82.5 25t46.5 65h105q-13 -50 -44 -90.5t-78 -64
t-109 -23.5q-50 0 -92 17t-74 47v-52h-88l-7 54q-37 -40 -79 -53t-86 -13zM578 295h279q-3 58 -41 92t-94 34q-54 0 -95 -32t-49 -94zM312 80q68 0 111.5 47t43.5 121q0 75 -43.5 121.5t-111.5 46.5t-112 -46.5t-44 -121.5q0 -49 20 -87t55.5 -59.5t80.5 -21.5z" />
    <glyph glyph-name="aeacute.ss02" horiz-adv-x="1006" 
d="M298 -12q-75 0 -131 34t-87 93t-31 134t31 133.5t86.5 92t127.5 33.5q56 0 99.5 -21t69.5 -59l7 68h88v-58q65 70 170 70q71 0 124 -32.5t82 -86.5t29 -119v-21.5t-1 -25.5h-386q4 -72 47 -109.5t98 -37.5q50 0 82.5 25t46.5 65h105q-13 -50 -44 -90.5t-78 -64
t-109 -23.5q-50 0 -92 17t-74 47v-52h-88l-7 54q-37 -40 -79 -53t-86 -13zM578 295h279q-3 58 -41 92t-94 34q-54 0 -95 -32t-49 -94zM312 80q68 0 111.5 47t43.5 121q0 75 -43.5 121.5t-111.5 46.5t-112 -46.5t-44 -121.5q0 -49 20 -87t55.5 -59.5t80.5 -21.5zM470 537v76
l218 124v-88z" />
    <glyph glyph-name="g.ss03" horiz-adv-x="653" 
d="M325 -232q-64 0 -119.5 21.5t-93.5 65t-48 108.5h105q13 -47 54.5 -75t100.5 -28q64 0 110 41.5t46 124.5v67q-23 -39 -68.5 -69t-113.5 -30q-70 0 -126.5 33.5t-89.5 92t-33 131.5q0 74 33 132t89.5 91.5t127.5 33.5q61 0 108 -26.5t73 -65.5l10 80h96v-466
q0 -84 -34.5 -142.5t-93.5 -89t-133 -30.5zM317 85q47 0 83 21.5t57 59t21 85.5q0 49 -21 86t-57 58t-83 21q-46 0 -82 -21t-57 -58t-21 -86q0 -48 21 -85.5t57 -59t82 -21.5z" />
    <glyph glyph-name="gbreve.ss03" horiz-adv-x="653" 
d="M325 -232q-64 0 -119.5 21.5t-93.5 65t-48 108.5h105q13 -47 54.5 -75t100.5 -28q64 0 110 41.5t46 124.5v67q-23 -39 -68.5 -69t-113.5 -30q-70 0 -126.5 33.5t-89.5 92t-33 131.5q0 74 33 132t89.5 91.5t127.5 33.5q61 0 108 -26.5t73 -65.5l10 80h96v-466
q0 -84 -34.5 -142.5t-93.5 -89t-133 -30.5zM317 85q47 0 83 21.5t57 59t21 85.5q0 49 -21 86t-57 58t-83 21q-46 0 -82 -21t-57 -58t-21 -86q0 -48 21 -85.5t57 -59t82 -21.5zM312 549q-70 0 -108.5 39.5t-38.5 101.5v15h59q0 -36 20 -55.5t68 -19.5q49 0 69 19.5t20 55.5
h60v-15q0 -63 -39 -102t-110 -39z" />
    <glyph glyph-name="uni0123.ss03" horiz-adv-x="653" 
d="M252 596q-13 53 -13 97q0 120 109 120v-46q-49 0 -49 -56v-22h52v-93h-99zM325 -232q-64 0 -119.5 21.5t-93.5 65t-48 108.5h105q13 -47 54.5 -75t100.5 -28q64 0 110 41.5t46 124.5v67q-23 -39 -68.5 -69t-113.5 -30q-70 0 -126.5 33.5t-89.5 92t-33 131.5q0 74 33 132
t89.5 91.5t127.5 33.5q61 0 108 -26.5t73 -65.5l10 80h96v-466q0 -84 -34.5 -142.5t-93.5 -89t-133 -30.5zM317 85q47 0 83 21.5t57 59t21 85.5q0 49 -21 86t-57 58t-83 21q-46 0 -82 -21t-57 -58t-21 -86q0 -48 21 -85.5t57 -59t82 -21.5z" />
    <glyph glyph-name="gdotaccent.ss03" horiz-adv-x="653" 
d="M325 -232q-64 0 -119.5 21.5t-93.5 65t-48 108.5h105q13 -47 54.5 -75t100.5 -28q64 0 110 41.5t46 124.5v67q-23 -39 -68.5 -69t-113.5 -30q-70 0 -126.5 33.5t-89.5 92t-33 131.5q0 74 33 132t89.5 91.5t127.5 33.5q61 0 108 -26.5t73 -65.5l10 80h96v-466
q0 -84 -34.5 -142.5t-93.5 -89t-133 -30.5zM317 85q47 0 83 21.5t57 59t21 85.5q0 49 -21 86t-57 58t-83 21q-46 0 -82 -21t-57 -58t-21 -86q0 -48 21 -85.5t57 -59t82 -21.5zM313 561q-23 0 -39.5 16.5t-16.5 39.5t16.5 39.5t39.5 16.5t39.5 -16.5t16.5 -39.5t-16.5 -39.5
t-39.5 -16.5z" />
    <glyph glyph-name="ordfeminine" unicode="&#xaa;" horiz-adv-x="454" 
d="M199 348q-48 0 -86 22.5t-60 63.5t-22 95q0 55 22 95.5t59.5 63t84.5 22.5q49 0 81.5 -19.5t48.5 -49.5l8 63h75v-351h-75l-8 62q-15 -29 -47.5 -48t-80.5 -19zM221 413q44 0 75 30.5t31 85.5t-31 85t-75 30q-42 0 -73 -30t-31 -85t31 -85.5t73 -30.5z" />
    <glyph glyph-name="ordmasculine" unicode="&#xba;" horiz-adv-x="439" 
d="M219 349q-55 0 -97.5 23t-66.5 64t-24 95t24.5 95t67 63.5t97.5 22.5t97.5 -22.5t67 -63.5t24.5 -95t-25 -95t-67.5 -64t-97.5 -23zM219 415q42 0 73.5 29t31.5 86q0 58 -31.5 87.5t-73.5 29.5t-72.5 -29.5t-30.5 -87.5q0 -57 30.5 -86t72.5 -29z" />
    <glyph glyph-name="pi" unicode="&#x3c0;" horiz-adv-x="646" 
d="M116 0v414h-77v82h568v-82h-77v-414h-106v414h-202v-414h-106z" />
    <glyph glyph-name="zero" unicode="0" horiz-adv-x="702" 
d="M351 -12q-95 0 -163.5 45.5t-105 127t-36.5 189.5t36.5 189.5t105 127t163.5 45.5t163 -45.5t104.5 -127t36.5 -189.5t-36.5 -189.5t-104.5 -127t-163 -45.5zM351 83q57 0 101.5 32t69.5 92t25 143t-25 143t-69.5 92t-101.5 32q-58 0 -102 -32t-69 -92t-25 -143t25 -143
t69 -92t102 -32z" />
    <glyph glyph-name="one" unicode="1" horiz-adv-x="324" 
d="M143 0v580l-113 -26v78l155 68h68v-700h-110z" />
    <glyph glyph-name="two" unicode="2" horiz-adv-x="572" 
d="M57 0v76q68 54 130 109t110.5 108.5t76.5 105t28 99.5q0 32 -11 60.5t-36 46t-67 17.5q-63 0 -94.5 -40t-30.5 -96h-103q1 74 31.5 124t82 76t116.5 26q99 0 158.5 -55.5t59.5 -154.5q0 -59 -28.5 -117t-74 -111.5t-97.5 -100.5t-99 -85h320v-88h-472z" />
    <glyph glyph-name="three" unicode="3" horiz-adv-x="592" 
d="M295 -12q-68 0 -123.5 24.5t-88.5 74.5t-35 125h105q2 -56 38.5 -94.5t103.5 -38.5q64 0 98 35.5t34 88.5q0 64 -45.5 95t-111.5 31h-52v88h53q59 0 95.5 28t36.5 79q0 43 -28.5 70t-80.5 27q-54 0 -85 -31.5t-34 -78.5h-105q2 61 30.5 106t78.5 70t115 25
q70 0 117.5 -24.5t72 -66t24.5 -90.5q0 -56 -31 -98t-83 -56q60 -13 99 -58.5t39 -117.5q0 -58 -27 -106.5t-80 -77.5t-130 -29z" />
    <glyph glyph-name="four" unicode="4" horiz-adv-x="623" 
d="M390 0v140h-351v84l334 476h122v-468h98v-92h-98v-140h-105zM154 232h242v351z" />
    <glyph glyph-name="five" unicode="5" horiz-adv-x="616" 
d="M315 -12q-74 0 -128 26.5t-85.5 73t-38.5 105.5h104q10 -50 50 -82.5t99 -32.5q44 0 76 21.5t50 57.5t18 81q0 71 -40 113.5t-101 42.5q-52 0 -89 -24.5t-54 -61.5h-101l60 392h378v-93h-298l-36 -187q23 26 63.5 43.5t91.5 17.5q71 0 122 -32.5t78.5 -87.5t27.5 -122
q0 -70 -30 -127t-85.5 -90.5t-131.5 -33.5z" />
    <glyph glyph-name="six" unicode="6" horiz-adv-x="632" 
d="M328 -12q-77 0 -130 29t-85.5 77t-46.5 108t-14 123q0 116 32.5 203t93.5 135.5t148 48.5q69 0 118 -27t76.5 -72t33.5 -98h-99q-9 52 -43 80t-87 28q-73 0 -120.5 -68.5t-50.5 -210.5q24 44 74.5 75t116.5 31q59 0 110.5 -28t84 -78.5t32.5 -119.5q0 -61 -30 -115
t-84.5 -87.5t-129.5 -33.5zM322 80q42 0 75 18t52 49.5t19 71.5q0 64 -41.5 102t-105.5 38q-42 0 -75.5 -19t-52.5 -50.5t-19 -69.5q0 -41 19.5 -72.5t53 -49.5t75.5 -18z" />
    <glyph glyph-name="seven" unicode="7" horiz-adv-x="534" 
d="M120 0l271 609h-364v91h473v-77l-269 -623h-111z" />
    <glyph glyph-name="eight" unicode="8" horiz-adv-x="620" 
d="M310 -12q-70 0 -126.5 25.5t-90 71.5t-33.5 108q0 63 35.5 113t94.5 68q-53 21 -82 61.5t-29 89.5q0 51 27 93.5t78.5 68t125.5 25.5t125.5 -25.5t78.5 -68t27 -93.5q0 -48 -29.5 -89.5t-82.5 -61.5q59 -19 94.5 -68.5t35.5 -112.5q0 -62 -33 -108t-89.5 -71.5
t-126.5 -25.5zM310 408q58 0 91.5 30t33.5 77q0 53 -33 81t-92 28t-92 -28t-33 -81q0 -47 33 -77t92 -30zM310 78q72 0 108 34.5t36 88.5q0 60 -38.5 92.5t-105.5 32.5t-106 -32.5t-39 -92.5q0 -54 36.5 -88.5t108.5 -34.5z" />
    <glyph glyph-name="nine" unicode="9" horiz-adv-x="632" 
d="M306 -12q-69 0 -118 27t-76.5 72t-33.5 98h99q9 -52 43 -80t87 -28q73 0 120.5 68.5t50.5 210.5q-24 -44 -74.5 -75t-116.5 -31q-59 0 -111 28t-84 78.5t-32 119.5q0 61 30 115t84.5 87.5t129.5 33.5q77 0 130 -29t85 -77t46.5 -108t14.5 -123q0 -116 -32.5 -203
t-93.5 -135.5t-148 -48.5zM311 341q42 0 75 19t52.5 50.5t19.5 69.5q0 41 -19.5 72.5t-53 49.5t-75.5 18t-75 -18t-52.5 -49.5t-19.5 -71.5q0 -64 42 -102t106 -38z" />
    <glyph glyph-name="three.ss04" horiz-adv-x="601" 
d="M299 -5q-68 0 -122.5 24t-87.5 72.5t-38 122.5h104q6 -57 42 -94t103 -37q65 0 102.5 36.5t37.5 99.5q0 65 -38.5 102t-105.5 37h-100v72l186 180h-289v90h419v-80l-195 -187q105 -3 165.5 -59.5t60.5 -156.5q0 -102 -66 -162t-178 -60z" />
    <glyph glyph-name="six.ss04" horiz-adv-x="598" 
d="M300 -12q-76 0 -132.5 32t-87.5 88t-31 125q0 54 17.5 106t56.5 109l170 252h122l-169 -244q18 5 35.5 8t37.5 3q68 0 120 -29t81.5 -81.5t29.5 -123.5q0 -73 -32.5 -128t-88.5 -86t-129 -31zM300 81q68 0 107.5 41.5t39.5 109.5t-39.5 109.5t-107.5 41.5
q-67 0 -107 -41.5t-40 -108.5q0 -69 40 -110.5t107 -41.5z" />
    <glyph glyph-name="nine.ss04" horiz-adv-x="598" 
d="M184 0l168 244q-17 -5 -35 -8t-37 -3q-69 0 -121 29t-81 81.5t-29 123.5q0 73 32 128t88.5 86t128.5 31q76 0 132.5 -32t88 -88t31.5 -125q0 -54 -18 -106t-57 -109l-170 -252h-121zM298 317q68 0 108 41.5t40 108.5q0 69 -40 110.5t-108 41.5q-67 0 -107 -41.5
t-40 -109.5t40 -109.5t107 -41.5z" />
    <glyph glyph-name="uni00B9" unicode="&#xb9;" horiz-adv-x="219" 
d="M94 352v273l-68 -17v51l101 45h50v-352h-83z" />
    <glyph glyph-name="uni00B2" unicode="&#xb2;" horiz-adv-x="344" 
d="M36 352v60l115 87q28 23 46.5 46t18.5 54q0 25 -14 38t-34 13q-46 0 -52 -54h-83q4 49 39.5 82t101.5 33q62 0 95.5 -32.5t33.5 -75.5q0 -40 -25.5 -70t-75.5 -63l-78 -52h181v-66h-269z" />
    <glyph glyph-name="uni00B3" unicode="&#xb3;" horiz-adv-x="341" 
d="M168 347q-67 0 -103.5 29t-41.5 82h84q3 -28 19 -39t40 -11q25 0 40.5 13t15.5 36q0 24 -17.5 37t-43.5 13h-43v45h41q26 0 42.5 12.5t16.5 37.5q0 21 -14.5 34t-40.5 13q-25 0 -39 -11.5t-18 -31.5h-79q4 44 40 74.5t104 30.5q58 0 96.5 -29.5t38.5 -73.5q0 -31 -18 -51
t-48 -27v-3q31 -8 50 -28.5t19 -53.5q0 -41 -38 -69.5t-103 -28.5z" />
    <glyph glyph-name="uni2074" unicode="&#x2074;" horiz-adv-x="333" 
d="M193 352v64h-169v57l159 227h90v-224h42v-60h-42v-64h-80zM107 476h91v136z" />
    <glyph glyph-name="fraction" unicode="&#x2044;" horiz-adv-x="466" 
d="M-15 0l400 700h105l-401 -700h-104z" />
    <glyph glyph-name="onehalf" unicode="&#xbd;" horiz-adv-x="711" 
d="M107 352v273l-68 -17v51l101 45h50v-352h-83zM65 0l368 700h102l-368 -700h-102zM386 -1v60l115 87q28 23 46.5 46t18.5 54q0 25 -13.5 38t-33.5 13q-47 0 -53 -54h-82q3 49 38.5 82t102.5 33q62 0 95 -32.5t33 -75.5q0 -40 -25 -70t-76 -63l-78 -52h181v-66h-269z" />
    <glyph glyph-name="onequarter" unicode="&#xbc;" horiz-adv-x="666" 
d="M107 352v273l-68 -17v51l101 45h50v-352h-83zM68 0l373 700h101l-372 -700h-102zM504 0v68h-185v47l157 238h111v-234h46v-51h-46v-68h-83zM400 120h107v166z" />
    <glyph glyph-name="threequarters" unicode="&#xbe;" horiz-adv-x="763" 
d="M187 347q-67 0 -103.5 29t-41.5 82h84q3 -28 19 -39t39 -11q26 0 41.5 13t15.5 36q0 24 -17.5 37t-43.5 13h-43v45h41q26 0 42.5 12.5t16.5 37.5q0 21 -15 34t-40 13t-39 -11.5t-18 -31.5h-79q4 44 40 74.5t104 30.5q58 0 96.5 -29.5t38.5 -73.5q0 -31 -18 -51t-48 -27
v-3q31 -8 50 -28.5t19 -53.5q0 -41 -38 -69.5t-103 -28.5zM166 0l379 700h102l-379 -700h-102zM601 0v68h-185v47l153 238h115v-234h46v-51h-46v-68h-83zM498 119h106v170z" />
    <glyph glyph-name="period" unicode="." horiz-adv-x="217" 
d="M109 -6q-30 0 -49.5 19.5t-19.5 46.5q0 28 19.5 47.5t49.5 19.5t49 -19.5t19 -47.5q0 -27 -19 -46.5t-49 -19.5z" />
    <glyph glyph-name="comma" unicode="," horiz-adv-x="204" 
d="M8 -118l58 236h105l-92 -236h-71z" />
    <glyph glyph-name="colon" unicode=":" horiz-adv-x="220" 
d="M109 -6q-30 0 -49.5 19.5t-19.5 46.5q0 28 19.5 47.5t49.5 19.5t49 -19.5t19 -47.5q0 -27 -19 -46.5t-49 -19.5zM109 375q-30 0 -49.5 19.5t-19.5 46.5q0 28 19.5 47.5t49.5 19.5t49 -19.5t19 -47.5q0 -27 -19 -46.5t-49 -19.5z" />
    <glyph glyph-name="semicolon" unicode=";" horiz-adv-x="245" 
d="M133 375q-30 0 -49.5 19.5t-19.5 46.5q0 28 19.5 47.5t49.5 19.5t49 -19.5t19 -47.5q0 -27 -19 -46.5t-49 -19.5zM23 -118l58 236h105l-92 -236h-71z" />
    <glyph glyph-name="ellipsis" unicode="&#x2026;" horiz-adv-x="614" 
d="M308 -6q-30 0 -49.5 19.5t-19.5 46.5q0 28 19.5 47.5t49.5 19.5t49 -19.5t19 -47.5q0 -27 -19 -46.5t-49 -19.5zM506 -6q-30 0 -49.5 19.5t-19.5 46.5q0 28 19.5 47.5t49.5 19.5t49 -19.5t19 -47.5q0 -27 -19 -46.5t-49 -19.5zM109 -6q-30 0 -49.5 19.5t-19.5 46.5
q0 28 19.5 47.5t49.5 19.5t49 -19.5t19 -47.5q0 -27 -19 -46.5t-49 -19.5z" />
    <glyph glyph-name="exclam" unicode="!" horiz-adv-x="272" 
d="M89 207l-12 493h114l-12 -493h-90zM137 -6q-31 0 -50.5 19.5t-19.5 46.5q0 28 19.5 47.5t50.5 19.5q29 0 48.5 -19.5t19.5 -47.5q0 -27 -19.5 -46.5t-48.5 -19.5z" />
    <glyph glyph-name="exclamdown" unicode="&#xa1;" horiz-adv-x="272" 
d="M137 432q-31 0 -50.5 19t-19.5 48q0 27 19.5 46.5t50.5 19.5q29 0 48.5 -19.5t19.5 -46.5q0 -29 -19.5 -48t-48.5 -19zM77 -141l12 492h90l12 -492h-114z" />
    <glyph glyph-name="question" unicode="?" horiz-adv-x="521" 
d="M144 207l-4 163h38q54 0 99.5 10t73 39t27.5 86q0 55 -34 86.5t-89 31.5q-57 0 -90 -31t-33 -84h-100q-1 60 26.5 106t78 72t118.5 26q66 0 117 -25t79.5 -71.5t28.5 -111.5q0 -71 -31 -116.5t-85 -67t-124 -21.5l-3 -92h-93zM191 -6q-31 0 -50 19.5t-19 46.5
q0 28 19 47.5t50 19.5q29 0 48.5 -19.5t19.5 -47.5q0 -27 -19.5 -46.5t-48.5 -19.5z" />
    <glyph glyph-name="questiondown" unicode="&#xbf;" horiz-adv-x="521" 
d="M331 426q-30 0 -49.5 19t-19.5 47t19.5 47t49.5 19t49.5 -19t19.5 -47t-19.5 -47t-49.5 -19zM266 -160q-66 0 -116.5 25t-79.5 71.5t-29 111.5q0 72 31 117t85 67t124 22l3 92h93l4 -164h-38q-54 0 -99 -10t-72.5 -38.5t-27.5 -85.5q0 -55 33.5 -87t89.5 -32
q57 0 89.5 31.5t32.5 84.5h100q1 -60 -26.5 -106.5t-77.5 -72.5t-119 -26z" />
    <glyph glyph-name="periodcentered" unicode="&#xb7;" horiz-adv-x="217" 
d="M109 269q-30 0 -49.5 19.5t-19.5 46.5q0 28 19.5 47.5t49.5 19.5t49 -19.5t19 -47.5q0 -27 -19 -46.5t-49 -19.5z" />
    <glyph glyph-name="bullet" unicode="&#x2022;" horiz-adv-x="369" 
d="M184 206q-35 0 -64 17t-46.5 45.5t-17.5 64.5t17.5 65t46.5 46t64 17q36 0 65 -17t46 -46t17 -65t-17 -64.5t-46 -45.5t-65 -17z" />
    <glyph glyph-name="asterisk" unicode="*" horiz-adv-x="492" 
d="M208 360l16 147l-118 -87l-42 72l136 57l-135 55l39 70l121 -87l-17 148h80l-17 -148l120 87l38 -69l-135 -57l136 -56l-41 -71l-118 86l16 -147h-79z" />
    <glyph glyph-name="numbersign" unicode="#" horiz-adv-x="837" 
d="M143 0l39 186h-143v95h164l33 154h-149v95h169l40 184h100l-40 -184h202l40 184h100l-39 -184h134v-95h-155l-33 -154h140v-95h-160l-40 -186h-100l40 186h-202l-40 -186h-100zM303 281h202l33 154h-202z" />
    <glyph glyph-name="slash" unicode="/" horiz-adv-x="406" 
d="M26 -103l250 874h104l-251 -874h-103z" />
    <glyph glyph-name="backslash" unicode="\" horiz-adv-x="406" 
d="M277 -103l-251 874h104l250 -874h-103z" />
    <glyph glyph-name="comma.ss01" horiz-adv-x="190" 
d="M41 -100v45q48 0 48 57v22h-52v93h99q7 -27 10.5 -51.5t3.5 -45.5q0 -120 -109 -120z" />
    <glyph glyph-name="parenleft" unicode="(" horiz-adv-x="386" 
d="M244 -145q-56 54 -100.5 126.5t-71 161t-26.5 190.5t26.5 190.5t71 161t100.5 126.5h106v-10q-90 -93 -144.5 -213t-54.5 -255t54.5 -255t145.5 -213v-10h-107z" />
    <glyph glyph-name="parenright" unicode=")" horiz-adv-x="386" 
d="M35 -145v10q90 93 145 213t55 255t-54.5 255t-144.5 213v10h106q55 -54 100 -126.5t71.5 -161t26.5 -190.5t-26.5 -190.5t-71.5 -161t-100 -126.5h-107z" />
    <glyph glyph-name="braceleft" unicode="{" horiz-adv-x="444" 
d="M329 -162q-72 0 -116.5 39.5t-44.5 117.5q0 34 5 62t10.5 56.5t5.5 65.5q0 35 -21.5 64t-79.5 39v85q58 10 79.5 38.5t21.5 64.5q0 37 -5.5 65.5t-10.5 56.5t-5 62q0 78 44.5 117.5t116.5 39.5h58v-89h-39q-39 0 -58.5 -18.5t-19.5 -59.5q0 -28 5 -54t10 -55.5t5 -68.5
q0 -52 -26 -90t-84 -51v-2q58 -12 84 -50t26 -91q0 -38 -5 -67.5t-10 -56t-5 -53.5q0 -41 19.5 -59.5t58.5 -18.5h39v-89h-58z" />
    <glyph glyph-name="braceright" unicode="}" horiz-adv-x="444" 
d="M57 -162v89h38q39 0 59 18.5t20 59.5q0 27 -5 53.5t-10 56t-5 67.5q0 53 26 91t84 50v2q-58 13 -84 51t-26 90q0 39 5 68.5t10 55.5t5 54q0 41 -20 59.5t-59 18.5h-38v89h58q72 0 116.5 -39.5t44.5 -117.5q0 -34 -5.5 -62t-11 -56.5t-5.5 -65.5q0 -36 21.5 -64.5
t80.5 -38.5v-85q-59 -10 -80.5 -39t-21.5 -64q0 -37 5.5 -65.5t11 -56.5t5.5 -62q0 -78 -44.5 -117.5t-116.5 -39.5h-58z" />
    <glyph glyph-name="bracketleft" unicode="[" horiz-adv-x="333" 
d="M71 -161v972h206v-87h-106v-797h106v-88h-206z" />
    <glyph glyph-name="bracketright" unicode="]" horiz-adv-x="333" 
d="M56 -161v88h107v797h-107v87h206v-972h-206z" />
    <glyph glyph-name="hyphen" unicode="-" horiz-adv-x="520" 
d="M57 246v89h407v-89h-407z" />
    <glyph glyph-name="uni00AD" unicode="&#xad;" horiz-adv-x="600" 
d="M57 246v89h407v-89h-407z" />
    <glyph glyph-name="endash" unicode="&#x2013;" horiz-adv-x="645" 
d="M56 246v88h532v-88h-532z" />
    <glyph glyph-name="emdash" unicode="&#x2014;" horiz-adv-x="857" 
d="M56 246v88h745v-88h-745z" />
    <glyph glyph-name="underscore" unicode="_" horiz-adv-x="661" 
d="M56 -137v100h549v-100h-549z" />
    <glyph glyph-name="quotesinglbase" unicode="&#x201a;" horiz-adv-x="212" 
d="M8 -117l56 235h114l-96 -235h-74z" />
    <glyph glyph-name="quotedblbase" unicode="&#x201e;" horiz-adv-x="387" 
d="M8 -117l56 235h114l-96 -235h-74zM184 -117l55 235h115l-96 -235h-74z" />
    <glyph glyph-name="quotedblleft" unicode="&#x201c;" horiz-adv-x="413" 
d="M31 465l96 235h74l-56 -235h-114zM206 465l96 235h74l-56 -235h-114z" />
    <glyph glyph-name="quotedblright" unicode="&#x201d;" horiz-adv-x="413" 
d="M212 466l56 235h114l-97 -235h-73zM37 466l56 235h115l-97 -235h-74z" />
    <glyph glyph-name="quoteleft" unicode="&#x2018;" horiz-adv-x="238" 
d="M31 465l96 235h74l-56 -235h-114z" />
    <glyph glyph-name="quoteright" unicode="&#x2019;" horiz-adv-x="239" 
d="M37 465l56 235h115l-97 -235h-74z" />
    <glyph glyph-name="guillemotleft" unicode="&#xab;" horiz-adv-x="478" 
d="M326 120l-93 175l93 175h102l-96 -175l96 -175h-102zM137 120l-94 175l94 175h102l-97 -175l97 -175h-102z" />
    <glyph glyph-name="guillemotright" unicode="&#xbb;" horiz-adv-x="478" 
d="M240 120l96 175l-96 175h102l93 -175l-93 -175h-102zM50 120l97 175l-97 175h102l94 -175l-94 -175h-102z" />
    <glyph glyph-name="guilsinglleft" unicode="&#x2039;" horiz-adv-x="289" 
d="M137 120l-94 175l94 175h102l-97 -175l97 -175h-102z" />
    <glyph glyph-name="guilsinglright" unicode="&#x203a;" horiz-adv-x="289" 
d="M50 120l97 175l-97 175h102l94 -175l-94 -175h-102z" />
    <glyph glyph-name="quotedbl" unicode="&#x22;" horiz-adv-x="316" 
d="M195 552l-12 203h95l-11 -203h-72zM49 552l-11 203h95l-11 -203h-73z" />
    <glyph glyph-name="quotesingle" unicode="'" horiz-adv-x="173" 
d="M50 552l-12 203h97l-12 -203h-73z" />
    <glyph glyph-name="quotesinglbase.ss01" horiz-adv-x="190" 
d="M41 -100v45q48 0 48 57v22h-52v93h99q7 -27 10.5 -51.5t3.5 -45.5q0 -120 -109 -120z" />
    <glyph glyph-name="quotedblbase.ss01" horiz-adv-x="336" 
d="M41 -100v45q48 0 48 57v22h-52v93h99q7 -27 10.5 -51.5t3.5 -45.5q0 -120 -109 -120zM187 -100v45q48 0 48 57v22h-52v93h99q7 -27 10.5 -51.5t3.5 -45.5q0 -120 -109 -120z" />
    <glyph glyph-name="quotedblleft.ss01" horiz-adv-x="325" 
d="M191 579q-12 53 -12 97q0 120 109 120v-46q-50 0 -50 -56v-22h52v-93h-99zM46 579q-7 27 -10 51.5t-3 45.5q0 120 108 120v-46q-48 0 -48 -56v-22h52v-93h-99z" />
    <glyph glyph-name="quotedblright.ss01" horiz-adv-x="324" 
d="M182 579v46q49 0 49 57v21h-51v93h99q13 -53 13 -97q0 -120 -110 -120zM37 579v46q49 0 49 57v21h-52v93h98q8 -27 11 -51.5t3 -45.5q0 -120 -109 -120z" />
    <glyph glyph-name="quoteleft.ss01" horiz-adv-x="179" 
d="M46 579q-7 27 -10 51.5t-3 45.5q0 120 108 120v-46q-48 0 -48 -56v-22h52v-93h-99z" />
    <glyph glyph-name="quoteright.ss01" horiz-adv-x="179" 
d="M37 579v46q49 0 49 57v21h-52v93h98q8 -27 11 -51.5t3 -45.5q0 -120 -109 -120z" />
    <glyph glyph-name="space" unicode=" " horiz-adv-x="252" 
 />
    <glyph glyph-name="uni00A0" unicode="&#xa0;" horiz-adv-x="252" 
 />
    <glyph glyph-name="CR" unicode="&#xd;" horiz-adv-x="600" 
 />
    <glyph glyph-name="cent" unicode="&#xa2;" horiz-adv-x="585" 
d="M251 -104v97q-60 11 -105.5 45.5t-71 88t-25.5 121.5t25.5 121.5t71 88t105.5 45.5v97h100v-96q72 -12 121.5 -57.5t64.5 -116.5h-111q-10 41 -44 64t-80 23q-39 0 -72 -19.5t-53 -57t-20 -92.5t20 -92.5t53 -57.5t72 -20q46 0 80 23t44 65h111q-15 -69 -64 -115.5
t-122 -58.5v-96h-100z" />
    <glyph glyph-name="currency" unicode="&#xa4;" horiz-adv-x="544" 
d="M109 87l-45 45l58 58q-32 45 -32 107q0 64 33 109l-59 59l45 45l62 -62q44 26 102 26q57 0 101 -26l61 62l45 -45l-59 -59q16 -21 25.5 -48.5t9.5 -60.5q0 -31 -9 -58.5t-25 -48.5l58 -58l-45 -45l-60 60q-45 -27 -103 -27q-59 0 -103 27zM272 193q32 0 61 24.5t29 79.5
t-28.5 80t-61.5 25q-35 0 -62 -25t-27 -80t27 -79.5t62 -24.5z" />
    <glyph glyph-name="dollar" unicode="$" horiz-adv-x="588" 
d="M260 -87v77q-98 11 -157 69t-60 152h112q1 -47 28 -82.5t77 -47.5v241q-8 2 -16.5 5t-17.5 6q-81 27 -121.5 70t-40.5 113q-1 82 53 134t143 61v80h68v-81q87 -10 140 -63t54 -133h-112q-1 33 -21.5 62.5t-60.5 40.5v-214q8 -3 16 -5.5t16 -5.5q52 -17 93 -41t65.5 -63
t24.5 -99q0 -50 -24 -93.5t-72 -72.5t-119 -34v-76h-68zM174 525q0 -40 23 -61.5t63 -37.5v194q-38 -7 -62 -31.5t-24 -63.5zM431 182q0 49 -29 74.5t-74 42.5v-220q49 6 76 34t27 69z" />
    <glyph glyph-name="Euro" unicode="&#x20ac;" horiz-adv-x="782" 
d="M22 240v69h79q-2 20 -2 40q0 22 2 42h-79v70h90q28 114 112.5 182.5t211.5 68.5q123 0 201 -60t99 -168h-117q-15 61 -60.5 97t-123.5 36q-79 0 -133.5 -41t-78.5 -115h231v-70h-244q-2 -20 -2 -42q0 -21 2 -40h244v-69h-231q23 -75 78 -116t134 -41q78 0 123.5 34
t60.5 93h117q-21 -104 -99 -163t-201 -59q-128 0 -212.5 68.5t-111.5 183.5h-90z" />
    <glyph glyph-name="florin" unicode="&#x192;" horiz-adv-x="333" 
d="M-49 -210l8 89h24q26 0 39.5 13t17.5 47l56 523h-67l8 88h68l4 42q10 93 66 135.5t161 42.5l-8 -90q-54 0 -81 -20t-32 -68l-4 -42h110l-8 -88h-111l-56 -523q-8 -82 -51.5 -115.5t-117.5 -33.5h-26z" />
    <glyph glyph-name="uni20BD" unicode="&#x20bd;" horiz-adv-x="635" 
d="M35 115v83h88v91h-88v84h88v327h234q84 0 138 -27t80 -73.5t26 -105.5q0 -57 -25.5 -103.5t-79 -74t-139.5 -27.5h-128v-91h206v-83h-206v-115h-106v115h-88zM355 618h-126v-245h126q74 0 106.5 33t32.5 88q0 57 -32.5 90.5t-106.5 33.5z" />
    <glyph glyph-name="uni20A8" unicode="&#x20a8;" horiz-adv-x="1115" 
d="M74 0v700h238q82 0 136.5 -28t81 -75t26.5 -106q0 -73 -43.5 -129.5t-136.5 -72.5l187 -289h-124l-178 284h-81v-284h-106zM180 364h128q74 0 106.5 34t32.5 90q0 57 -32.5 91.5t-106.5 34.5h-128v-250zM846 -8q-97 0 -158.5 46.5t-70.5 131.5h107q4 -43 36 -69.5
t86 -26.5q50 0 75.5 22.5t25.5 56.5q0 33 -24 51t-61.5 27.5t-79.5 18.5t-79.5 24t-61 44t-23.5 80q0 44 24.5 80.5t71 58t111.5 21.5q95 0 152 -48.5t65 -128.5h-107q-4 41 -33.5 68t-81.5 27q-49 0 -75.5 -22t-26.5 -56q0 -33 24 -50t61.5 -26.5t79.5 -18.5t79.5 -24.5
t61.5 -45.5t24 -82q0 -46 -25.5 -82t-70.5 -56.5t-106 -20.5z" />
    <glyph glyph-name="sterling" unicode="&#xa3;" horiz-adv-x="610" 
d="M81 0v64q38 41 60.5 81.5t22.5 106.5q0 13 -2 26t-6 26h-114v74h90q-10 28 -18 58.5t-8 66.5q0 64 28 111t77.5 72.5t114.5 25.5q74 0 122.5 -28.5t73.5 -76.5t29 -106h-98q-3 53 -34.5 88t-90.5 35q-49 0 -85 -30t-36 -95q0 -30 8.5 -60.5t19.5 -60.5h190v-74h-167
q3 -12 4.5 -25t1.5 -27q0 -45 -17 -87t-55 -80h361v-86z" />
    <glyph glyph-name="yen" unicode="&#xa5;" horiz-adv-x="621" 
d="M58 158v75h200v25l-30 58h-170v75h130l-162 309h120l165 -346l165 346h119l-161 -309h130v-75h-170l-30 -58v-25h200v-75h-200v-158h-106v158h-200z" />
    <glyph glyph-name="uni2215" unicode="&#x2215;" horiz-adv-x="406" 
d="M26 -103l250 874h104l-251 -874h-103z" />
    <glyph glyph-name="plus" unicode="+" horiz-adv-x="590" 
d="M60 246v89h189v177h92v-177h189v-89h-189v-178h-92v178h-189z" />
    <glyph glyph-name="minus" unicode="&#x2212;" horiz-adv-x="526" 
d="M60 246v89h407v-89h-407z" />
    <glyph glyph-name="multiply" unicode="&#xd7;" horiz-adv-x="504" 
d="M122 97l-62 63l129 130l-125 126l63 63l125 -126l130 130l63 -63l-130 -130l126 -125l-64 -63l-125 126z" />
    <glyph glyph-name="divide" unicode="&#xf7;" horiz-adv-x="532" 
d="M266 385q-30 0 -49.5 19.5t-19.5 46.5q0 28 19.5 47.5t49.5 19.5t49 -19.5t19 -47.5q0 -27 -19 -46.5t-49 -19.5zM59 246v89h414v-89h-414zM266 63q-30 0 -49.5 19.5t-19.5 46.5q0 28 19.5 47.5t49.5 19.5t49 -19.5t19 -47.5q0 -27 -19 -46.5t-49 -19.5z" />
    <glyph glyph-name="equal" unicode="=" horiz-adv-x="534" 
d="M61 352v92h411v-92h-411zM61 137v92h411v-92h-411z" />
    <glyph glyph-name="notequal" unicode="&#x2260;" horiz-adv-x="534" 
d="M106 70l36 67h-81v92h129l65 122h-194v93h243l35 66h88l-35 -66h80v-93h-129l-65 -122h194v-92h-242l-36 -67h-88z" />
    <glyph glyph-name="greater" unicode="&#x3e;" horiz-adv-x="510" 
d="M73 135l235 228l-235 228h134l234 -228l-234 -228h-134z" />
    <glyph glyph-name="less" unicode="&#x3c;" horiz-adv-x="510" 
d="M303 135l-234 228l234 228h134l-235 -228l235 -228h-134z" />
    <glyph glyph-name="greaterequal" unicode="&#x2265;" horiz-adv-x="491" 
d="M61 210l232 191l-232 190h135l236 -191l-236 -190h-135zM61 66v82h361v-82h-361z" />
    <glyph glyph-name="lessequal" unicode="&#x2264;" horiz-adv-x="490" 
d="M294 210l-235 190l235 191h136l-233 -190l233 -191h-136zM68 66v82h361v-82h-361z" />
    <glyph glyph-name="plusminus" unicode="&#xb1;" horiz-adv-x="610" 
d="M63 274v89h196v134h92v-134h196v-89h-196v-134h-92v134h-196zM63 0v92h484v-92h-484z" />
    <glyph glyph-name="approxequal" unicode="&#x2248;" horiz-adv-x="540" 
d="M355 100q-29 0 -52 10t-43 23t-39.5 23.5t-41.5 10.5q-26 0 -43.5 -18t-22.5 -48h-79q14 82 53.5 121t97.5 39q30 0 53.5 -10t43.5 -23.5t39 -23.5t41 -10q26 0 43.5 17.5t21.5 48.5h79q-13 -82 -52.5 -121t-98.5 -39zM355 318q-29 0 -52 10t-43 23t-39.5 23.5
t-41.5 10.5q-26 0 -43.5 -18t-22.5 -48h-79q14 82 53.5 121t97.5 39q30 0 53.5 -10t43.5 -23.5t39 -23.5t41 -10q26 0 43.5 17.5t21.5 48.5h79q-13 -82 -52.5 -121t-98.5 -39z" />
    <glyph glyph-name="asciitilde" unicode="~" horiz-adv-x="540" 
d="M355 239q-29 0 -52 10t-43 23t-39.5 23.5t-41.5 10.5q-26 0 -43.5 -18t-22.5 -48h-79q14 82 53.5 121t97.5 39q30 0 53.5 -10t43.5 -23.5t39 -23.5t41 -10q26 0 43.5 17.5t21.5 48.5h79q-13 -82 -52.5 -121t-98.5 -39z" />
    <glyph glyph-name="logicalnot" unicode="&#xac;" horiz-adv-x="675" 
d="M521 212v139h-475v83h581v-222h-106z" />
    <glyph glyph-name="asciicircum" unicode="^" horiz-adv-x="643" 
d="M35 174l237 526h100l236 -526h-108l-178 399l-179 -399h-108z" />
    <glyph glyph-name="infinity" unicode="&#x221e;" horiz-adv-x="722" 
d="M191 134q-67 0 -111.5 40t-44.5 112q0 49 21 83.5t57 53t80 18.5q60 0 99.5 -30.5t70.5 -69.5q25 42 67.5 71t100.5 29q66 0 111 -40t45 -112q0 -49 -21.5 -83.5t-58 -53t-81.5 -18.5q-58 0 -98 29t-72 67q-25 -40 -66.5 -68t-98.5 -28zM122 286q0 -36 21 -56.5t55 -20.5
q35 0 65 20.5t51 54.5q-27 33 -54.5 58t-63.5 25q-32 0 -53 -21.5t-21 -59.5zM523 366q-36 0 -67 -22t-51 -58q25 -32 51.5 -55t63.5 -23q36 0 58 21.5t22 58.5t-21 57.5t-56 20.5z" />
    <glyph glyph-name="integral" unicode="&#x222b;" horiz-adv-x="267" 
d="M-41 -210l9 89h20q25 0 36 13.5t14 46.5l91 837q9 81 52 113.5t112 32.5h21l-9 -90h-18q-23 0 -35.5 -12t-16.5 -44l-91 -837q-9 -82 -50 -115.5t-113 -33.5h-22z" />
    <glyph glyph-name="uni2126" unicode="&#x2126;" horiz-adv-x="789" 
d="M52 0v82h129q-71 44 -105.5 118t-34.5 160q0 79 27 144t75.5 111.5t112.5 71.5t138 25t138.5 -25t113 -71.5t75.5 -111.5t27 -144q0 -86 -34.5 -160t-106.5 -118h129v-82h-273v86q78 25 128 94.5t50 170.5q0 81 -32.5 140.5t-88 91.5t-126.5 32q-72 0 -127.5 -32.5
t-87 -92t-31.5 -139.5q0 -101 50 -170.5t127 -94.5v-86h-273z" />
    <glyph glyph-name="uni2206" unicode="&#x2206;" horiz-adv-x="703" 
d="M26 0v82l282 618h87l282 -618v-82h-651zM135 82h433l-217 497z" />
    <glyph glyph-name="product" unicode="&#x220f;" horiz-adv-x="731" 
d="M110 0v618h-77v82h665v-82h-77v-618h-106v618h-299v-618h-106z" />
    <glyph glyph-name="summation" unicode="&#x2211;" horiz-adv-x="472" 
d="M42 -49v122l255 255l-255 250l1 122h406v-82h-321l267 -249v-79l-265 -258h319v-81h-407z" />
    <glyph glyph-name="radical" unicode="&#x221a;" horiz-adv-x="747" 
d="M248 -43l-130 228l-68 -40l-31 54l160 93l118 -210l429 793h71l-498 -918h-51z" />
    <glyph glyph-name="uni00B5" unicode="&#xb5;" horiz-adv-x="600" 
d="M67 -220v716h106v-274q0 -144 118 -144q59 0 97.5 42t38.5 120v256h106v-496h-95l-7 86q-24 -45 -68.5 -71.5t-101.5 -26.5q-53 0 -88 24v-232h-106z" />
    <glyph glyph-name="partialdiff" unicode="&#x2202;" horiz-adv-x="579" 
d="M242 -9q-56 0 -102 25.5t-74 78t-28 133.5q0 67 19.5 126.5t55.5 105.5t85 72t108 26q44 0 79 -20.5t52 -74.5q-3 61 -19 109.5t-50 76.5t-90 28q-18 0 -36.5 -3t-39.5 -8v60q52 14 100 14q115 0 177 -86t62 -243q0 -130 -38.5 -224t-106 -145t-154.5 -51zM253 82
q51 0 89 33t59 88.5t21 120.5q0 74 -29.5 109.5t-79.5 35.5t-87.5 -32t-59 -86.5t-21.5 -122.5q0 -76 31.5 -111t76.5 -35z" />
    <glyph glyph-name="percent" unicode="%" horiz-adv-x="823" 
d="M206 366q-47 0 -84.5 21t-59.5 59.5t-22 92.5q0 53 22 91.5t60 59.5t85 21q46 0 83.5 -21t59.5 -59.5t22 -91.5q0 -54 -22 -92.5t-59.5 -59.5t-84.5 -21zM156 0l401 700h104l-400 -700h-105zM206 442q32 0 55.5 24.5t23.5 72.5t-23 72.5t-56 24.5q-32 0 -56 -24.5
t-24 -72.5t23.5 -72.5t56.5 -24.5zM617 -12q-47 0 -84.5 21t-59.5 59.5t-22 92.5q0 53 22 92t60 60t85 21q46 0 83.5 -21t59.5 -60t22 -92q0 -54 -22 -92.5t-59.5 -59.5t-84.5 -21zM617 65q32 0 55.5 24t23.5 72t-23 72.5t-56 24.5q-32 0 -56 -24.5t-24 -72.5t23.5 -72
t56.5 -24z" />
    <glyph glyph-name="perthousand" unicode="&#x2030;" horiz-adv-x="1185" 
d="M206 366q-47 0 -84.5 21t-59.5 59.5t-22 92.5q0 53 22 91.5t60 59.5t85 21q46 0 83.5 -21t59.5 -59.5t22 -91.5q0 -54 -22 -92.5t-59.5 -59.5t-84.5 -21zM156 0l401 700h104l-400 -700h-105zM206 441q33 0 57 24.5t24 73.5q0 48 -24 73t-57 25t-57 -25t-24 -73
q0 -49 24 -73.5t57 -24.5zM617 -12q-47 0 -84.5 21t-59.5 59.5t-22 92.5q0 53 22 92t60 60t85 21q46 0 83.5 -21t59.5 -60t22 -92q0 -54 -22 -92.5t-59.5 -59.5t-84.5 -21zM979 -12q-47 0 -84.5 21t-59.5 59.5t-22 92.5q0 53 22 92t60 60t85 21q46 0 83.5 -21t59.5 -60
t22 -92q0 -54 -22 -92.5t-59.5 -59.5t-84.5 -21zM617 63q33 0 57 25t24 73q0 49 -24 73.5t-57 24.5t-57 -24.5t-24 -73.5q0 -48 24 -73t57 -25zM979 63q32 0 56.5 25t24.5 73q0 49 -24 73.5t-57 24.5t-57 -24.5t-24 -73.5q0 -48 24 -73t57 -25z" />
    <glyph glyph-name="lozenge" unicode="&#x25ca;" horiz-adv-x="556" 
d="M278 105l-245 245l245 246l245 -246zM278 213l137 137l-137 137l-136 -137z" />
    <glyph glyph-name="at" unicode="@" horiz-adv-x="1030" 
d="M437 -206q-109 0 -190.5 42t-127 118.5t-45.5 180.5q0 109 38 202t107 163t162 108.5t204 38.5q114 0 197 -43t128.5 -120t45.5 -177q0 -59 -15 -115t-43.5 -100.5t-70 -71t-95.5 -26.5q-51 0 -79.5 24.5t-34.5 66.5q-30 -43 -76.5 -67t-99.5 -24q-75 0 -117.5 45.5
t-42.5 123.5q0 55 17 105.5t49 90t75.5 62.5t96.5 23q97 0 127 -77l12 66h88l-48 -276q-7 -41 3 -66.5t45 -25.5q31 0 54.5 22t39 57t23.5 76.5t8 81.5q0 127 -79 199.5t-220 72.5q-89 0 -165 -33.5t-132 -92t-87 -136.5t-31 -168q0 -131 79 -203.5t216 -72.5q44 0 87.5 9
t81.5 26l17 -70q-92 -39 -202 -39zM475 73q39 0 72 21.5t54 59t25 85.5q5 52 -20 89t-79 37q-46 0 -80 -27t-52 -69t-18 -89q0 -48 24.5 -77.5t73.5 -29.5z" />
    <glyph glyph-name="ampersand" unicode="&#x26;" horiz-adv-x="752" 
d="M287 -12q-75 0 -130.5 26.5t-86.5 74.5t-31 112q0 70 39.5 125t116.5 88q-32 36 -46 68t-14 70q0 69 50 114.5t139 45.5q58 0 100 -22t64 -59t21 -84h-103q1 40 -24.5 61t-58.5 21q-39 0 -62 -21.5t-23 -54.5q0 -29 16.5 -57t50.5 -63l208 -209q25 38 54 90l26 49h110
l-40 -73q-41 -80 -81 -134l156 -156h-130l-85 85q-52 -51 -109 -74t-127 -23zM142 207q0 -56 40.5 -93t106.5 -37q49 0 89 17.5t78 57.5l-199 199q-58 -24 -86.5 -60.5t-28.5 -83.5z" />
    <glyph glyph-name="paragraph" unicode="&#xb6;" horiz-adv-x="614" 
d="M283 -100v389h-13q-82 0 -134.5 27.5t-77.5 74.5t-25 103q0 57 25.5 103.5t78 74.5t133.5 28h273v-800h-91v718h-78v-718h-91z" />
    <glyph glyph-name="section" unicode="&#xa7;" horiz-adv-x="597" 
d="M295 -232q-69 0 -120.5 25t-80.5 69.5t-30 103.5h112q1 -27 15 -51.5t40.5 -40.5t66.5 -16q49 -1 81.5 25t32.5 72q0 41 -24 62t-66 35l-96 32q-51 18 -92.5 42.5t-66 63.5t-24.5 98q0 37 14.5 72t42.5 62q-27 38 -27 94q-1 59 27.5 103t80 68.5t120.5 24.5
q68 0 119.5 -25t80.5 -69.5t30 -103.5h-112q-1 27 -14.5 51.5t-40.5 40.5t-66 16q-50 1 -82.5 -25t-32.5 -72q0 -41 24 -62t66 -35l96 -32q52 -18 93 -42.5t65.5 -63.5t24.5 -98q0 -37 -14 -72t-42 -62q27 -39 27 -94q0 -59 -28.5 -103t-80 -68.5t-119.5 -24.5zM415 119
q25 27 25 66q0 46 -25.5 71t-69 41t-97.5 35q-21 7 -37.5 14.5t-29.5 14.5q-26 -27 -26 -66q0 -45 25.5 -70t69 -41.5t97.5 -35.5q19 -6 36 -13.5t32 -15.5z" />
    <glyph glyph-name="copyright" unicode="&#xa9;" horiz-adv-x="790" 
d="M395 -5q-103 0 -181.5 45.5t-122 126t-43.5 184.5t43.5 184t122 125.5t181.5 45.5t181.5 -45.5t122.5 -125.5t44 -184t-44 -184.5t-122.5 -126t-181.5 -45.5zM395 37q93 0 161 39.5t105 110.5t37 164q0 94 -37 164.5t-105 110t-161 39.5t-161 -39.5t-105 -110t-37 -164.5
q0 -93 37 -164t105 -110.5t161 -39.5zM396 121q-61 0 -110.5 27.5t-79 79t-29.5 124.5q0 72 29.5 123.5t79 79t110.5 27.5q75 0 131 -41t74 -115h-94q-12 39 -42.5 60t-70.5 21q-53 0 -90 -39t-37 -117q0 -77 37 -116.5t90 -39.5q42 0 71 21.5t42 59.5h94q-18 -71 -74 -113
t-131 -42z" />
    <glyph glyph-name="registered" unicode="&#xae;" horiz-adv-x="506" 
d="M254 300q-60 0 -106.5 26.5t-72.5 73t-26 106.5q0 59 26 106t72.5 73.5t106.5 26.5q59 0 105.5 -26.5t72.5 -73.5t26 -106q0 -60 -26 -106.5t-72.5 -73t-105.5 -26.5zM254 341q72 0 116 46t44 119q0 72 -44 118t-116 46q-73 0 -117 -46t-44 -118q0 -73 44 -119t117 -46z
M171 401v214h100q33 0 53 -18t20 -49q0 -49 -47 -63l56 -84h-62l-49 81h-18v-81h-53zM224 522h40q11 0 19 5.5t8 18.5q0 12 -8 17t-19 5h-40v-46z" />
    <glyph glyph-name="trademark" unicode="&#x2122;" horiz-adv-x="800" 
d="M336 348v352h105l103 -257l109 257h98v-352h-74l-2 245l-105 -245h-57l-104 252v-252h-73zM114 348l1 287h-88v65h256v-65h-88l1 -287h-82z" />
    <glyph glyph-name="degree" unicode="&#xb0;" horiz-adv-x="351" 
d="M175 435q-37 0 -68 17t-49.5 48t-18.5 73t19 73.5t50 48.5t68 17t68 -17t50 -48.5t19 -73.5t-19 -73t-50.5 -48t-68.5 -17zM175 507q23 0 42.5 16.5t19.5 50.5q0 33 -19 49.5t-42 16.5q-22 0 -42 -16.5t-20 -49.5q0 -34 19.5 -50.5t41.5 -16.5z" />
    <glyph glyph-name="bar" unicode="|" horiz-adv-x="248" 
d="M71 -100v820h106v-820h-106z" />
    <glyph glyph-name="brokenbar" unicode="&#xa6;" horiz-adv-x="248" 
d="M71 390v330h106v-330h-106zM71 -100v330h106v-330h-106z" />
    <glyph glyph-name="dagger" unicode="&#x2020;" horiz-adv-x="562" 
d="M228 -261l11 737l-195 -9v83l195 -9l-11 242h105l-10 -242l195 9v-83l-195 9l10 -737h-105z" />
    <glyph glyph-name="uni2113" unicode="&#x2113;" horiz-adv-x="248" 
d="M71 -100v820h106v-820h-106z" />
    <glyph glyph-name="daggerdbl" unicode="&#x2021;" horiz-adv-x="563" 
d="M228 -261l11 242l-195 -10v83l195 -9v431l-195 -9v83l195 -9l-11 242h105l-9 -242l195 9v-83l-195 9v-431l195 9v-83l-195 10l9 -242h-105z" />
    <glyph glyph-name="estimated" unicode="&#x212e;" horiz-adv-x="758" 
d="M388 -7q-98 0 -175.5 39.5t-122.5 115t-45 183.5q0 104 38.5 188.5t113 134t182.5 49.5q81 0 143.5 -27t105 -73t64.5 -104.5t22 -121.5v-62h-524v-168q37 -43 84.5 -65t113.5 -22q76 0 135 33t118 92l44 -49q-62 -67 -136 -105t-161 -38zM190 384h371v175
q-64 77 -182 77q-59 0 -107.5 -21.5t-81.5 -66.5v-164z" />
    <glyph glyph-name="uni0308" unicode="&#x308;" 
d="M226 568q-23 0 -39.5 16t-16.5 39q0 24 16.5 40t39.5 16t39 -16t16 -40q0 -23 -16 -39t-39 -16zM56 568q-24 0 -40 16t-16 39q0 24 16 40t40 16q23 0 39.5 -16t16.5 -40q0 -23 -16.5 -39t-39.5 -16z" />
    <glyph glyph-name="uni0307" unicode="&#x307;" 
d="M56 561q-23 0 -39.5 16.5t-16.5 39.5t16.5 39.5t39.5 16.5t39.5 -16.5t16.5 -39.5t-16.5 -39.5t-39.5 -16.5z" />
    <glyph glyph-name="gravecomb" unicode="&#x300;" 
d="M218 537l-218 112v88l218 -124v-76z" />
    <glyph glyph-name="acutecomb" unicode="&#x301;" 
d="M0 537v76l218 124v-88z" />
    <glyph glyph-name="uni030B" unicode="&#x30b;" 
d="M158 547l76 164h89l-97 -164h-68zM0 547l69 164h88l-88 -164h-69z" />
    <glyph glyph-name="uni0302" unicode="&#x302;" 
d="M0 547v79l141 81l142 -81v-79l-142 83z" />
    <glyph glyph-name="uni030C" unicode="&#x30c;" 
d="M141 546l-141 81v78l141 -84l142 84v-78z" />
    <glyph glyph-name="uni0306" unicode="&#x306;" 
d="M147 549q-70 0 -108.5 39.5t-38.5 101.5v15h59q0 -36 20 -55.5t68 -19.5q49 0 69 19.5t20 55.5h60v-15q0 -63 -39 -102t-110 -39z" />
    <glyph glyph-name="uni030A" unicode="&#x30a;" 
d="M109 552q-44 0 -76.5 28.5t-32.5 78.5t32.5 79t76.5 29q46 0 78 -29t32 -79t-32 -78.5t-78 -28.5zM109 603q23 0 39 15.5t16 40.5q0 27 -16 42t-39 15q-22 0 -38 -15t-16 -42q0 -25 16 -40.5t38 -15.5z" />
    <glyph glyph-name="tildecomb" unicode="&#x303;" 
d="M220 550q-28 0 -46.5 11.5t-35 23t-37.5 11.5q-36 0 -42 -45h-59q8 58 36 85.5t70 27.5q27 0 46 -11.5t35.5 -23t37.5 -11.5q16 0 28 11t15 34h59q-8 -57 -36.5 -85t-70.5 -28z" />
    <glyph glyph-name="uni0304" unicode="&#x304;" 
d="M0 585v77h361v-77h-361z" />
    <glyph glyph-name="uni0327" unicode="&#x327;" 
d="M0 -261v64h102q61 0 61 42q0 39 -61 39h-55v123h68v-63q54 1 91.5 -24t37.5 -77q0 -51 -36.5 -77.5t-88.5 -26.5h-119z" />
    <glyph glyph-name="uni0328" unicode="&#x328;" 
d="M125 -207q-49 0 -87 23.5t-38 76.5q0 38 28 71.5t100 65.5l49 22l25 -52l-55 -27q-35 -18 -49.5 -35t-14.5 -35q0 -21 15 -33t40 -12q32 0 69 15v-66q-18 -6 -39 -10t-43 -4z" />
    <glyph glyph-name="acute" unicode="&#xb4;" horiz-adv-x="256" 
d="M19 537v76l218 124v-88z" />
    <glyph glyph-name="breve" unicode="&#x2d8;" horiz-adv-x="334" 
d="M166 549q-70 0 -108.5 39.5t-38.5 101.5v15h59q0 -36 20 -55.5t68 -19.5q49 0 69 19.5t20 55.5h60v-15q0 -63 -39 -102t-110 -39z" />
    <glyph glyph-name="caron" unicode="&#x2c7;" horiz-adv-x="321" 
d="M160 546l-141 81v78l141 -84l142 84v-78z" />
    <glyph glyph-name="cedilla" unicode="&#xb8;" horiz-adv-x="282" 
d="M19 -261v64h102q61 0 61 42q0 39 -61 39h-55v123h68v-63q54 1 91.5 -24t37.5 -77q0 -51 -36.5 -77.5t-88.5 -26.5h-119z" />
    <glyph glyph-name="circumflex" unicode="&#x2c6;" horiz-adv-x="321" 
d="M19 547v79l141 81l142 -81v-79l-142 83z" />
    <glyph glyph-name="dieresis" unicode="&#xa8;" horiz-adv-x="334" 
d="M252 568q-23 0 -39.5 16t-16.5 39q0 24 16.5 40t39.5 16t39 -16t16 -40q0 -23 -16 -39t-39 -16zM82 568q-24 0 -40 16t-16 39q0 24 16 40t40 16q23 0 39.5 -16t16.5 -40q0 -23 -16.5 -39t-39.5 -16z" />
    <glyph glyph-name="dotaccent" unicode="&#x2d9;" horiz-adv-x="155" 
d="M77 561q-23 0 -39 16.5t-16 39.5t16 39.5t39 16.5q24 0 40 -16.5t16 -39.5t-16 -39.5t-40 -16.5z" />
    <glyph glyph-name="grave" unicode="`" horiz-adv-x="256" 
d="M237 537l-218 112v88l218 -124v-76z" />
    <glyph glyph-name="hungarumlaut" unicode="&#x2dd;" horiz-adv-x="367" 
d="M177 547l76 164h89l-97 -164h-68zM19 547l69 164h88l-88 -164h-69z" />
    <glyph glyph-name="macron" unicode="&#xaf;" horiz-adv-x="399" 
d="M19 585v77h361v-77h-361z" />
    <glyph glyph-name="ogonek" unicode="&#x2db;" horiz-adv-x="256" 
d="M149 -207q-50 0 -87.5 23.5t-37.5 76.5q0 38 27.5 71.5t99.5 65.5l50 22l25 -52l-55 -27q-36 -18 -50 -35t-14 -35q0 -21 15 -33t40 -12q31 0 68 15v-66q-18 -6 -39 -10t-42 -4z" />
    <glyph glyph-name="ring" unicode="&#x2da;" horiz-adv-x="253" 
d="M126 552q-44 0 -76.5 28.5t-32.5 78.5t32.5 79t76.5 29q46 0 78 -29t32 -79t-32 -78.5t-78 -28.5zM126 603q24 0 40 15.5t16 40.5q0 27 -16 42t-40 15q-22 0 -38 -15t-16 -42q0 -25 16 -40.5t38 -15.5z" />
    <glyph glyph-name="tilde" unicode="&#x2dc;" horiz-adv-x="361" 
d="M237 550q-27 0 -46 11.5t-35.5 23t-36.5 11.5q-37 0 -43 -45h-59q9 58 36.5 85.5t69.5 27.5q27 0 46 -11.5t35.5 -23t37.5 -11.5q17 0 28.5 11t14.5 34h59q-8 -57 -36.5 -85t-70.5 -28z" />
    <glyph glyph-name="uni0308.cap" 
d="M226 772q-23 0 -39.5 16t-16.5 39q0 24 16.5 40t39.5 16t39 -16t16 -40q0 -23 -16 -39t-39 -16zM56 772q-24 0 -40 16t-16 39q0 24 16 40t40 16q23 0 39.5 -16t16.5 -40q0 -23 -16.5 -39t-39.5 -16z" />
    <glyph glyph-name="uni0307.cap" 
d="M56 765q-23 0 -39.5 16.5t-16.5 39.5t16.5 39.5t39.5 16.5t39.5 -16.5t16.5 -39.5t-16.5 -39.5t-39.5 -16.5z" />
    <glyph glyph-name="gravecomb.cap" 
d="M218 741l-218 112v88l218 -124v-76z" />
    <glyph glyph-name="acutecomb.cap" 
d="M0 741v76l218 124v-88z" />
    <glyph glyph-name="uni030B.cap" 
d="M158 751l76 164h89l-97 -164h-68zM0 751l69 164h88l-88 -164h-69z" />
    <glyph glyph-name="uni0302.cap" 
d="M0 751v79l141 81l142 -81v-79l-142 83z" />
    <glyph glyph-name="uni030C.cap" 
d="M141 750l-141 81v78l141 -84l142 84v-78z" />
    <glyph glyph-name="uni0306.cap" 
d="M147 753q-70 0 -108.5 39.5t-38.5 101.5v15h59q0 -36 20 -55.5t68 -19.5q49 0 69 19.5t20 55.5h60v-15q0 -63 -39 -102t-110 -39z" />
    <glyph glyph-name="uni030A.cap" 
d="M109 756q-44 0 -76.5 28.5t-32.5 78.5t32.5 79t76.5 29q46 0 78 -29t32 -79t-32 -78.5t-78 -28.5zM109 807q23 0 39 15.5t16 40.5q0 27 -16 42t-39 15q-22 0 -38 -15t-16 -42q0 -25 16 -40.5t38 -15.5z" />
    <glyph glyph-name="tildecomb.cap" 
d="M220 754q-28 0 -46.5 11.5t-35 23t-37.5 11.5q-36 0 -42 -45h-59q8 58 36 85.5t70 27.5q27 0 46 -11.5t35.5 -23t37.5 -11.5q16 0 28 11t15 34h59q-8 -57 -36.5 -85t-70.5 -28z" />
    <glyph glyph-name="uni0304.cap" 
d="M0 789v77h361v-77h-361z" />
    <glyph glyph-name="uni0327.cap" 
d="M0 -261v64h102q61 0 61 42q0 39 -61 39h-55v123h68v-63q54 1 91.5 -24t37.5 -77q0 -51 -36.5 -77.5t-88.5 -26.5h-119z" />
    <glyph glyph-name="uni0328.cap" 
d="M125 -207q-49 0 -87 23.5t-38 76.5q0 38 28 71.5t100 65.5l49 22l25 -52l-55 -27q-35 -18 -49.5 -35t-14.5 -35q0 -21 15 -33t40 -12q32 0 69 15v-66q-18 -6 -39 -10t-43 -4z" />
    <glyph glyph-name="indianrupee" horiz-adv-x="629" 
d="M296 -10q-103 0 -156 56t-53 160v139q78 0 130 3.5t82.5 14.5t45.5 33t19 58h-315v70h319v2v100h-319v75h539v-75h-121v-99v-3h121v-70h-125q-9 -65 -39 -105t-88 -58t-150 -18v-75q0 -57 24.5 -91.5t84.5 -34.5q56 0 80.5 32.5t24.5 89.5h99q-2 -99 -54 -151.5
t-149 -52.5z" />
    <glyph glyph-name="turkishlira" horiz-adv-x="820" 
d="M29 210v72l154 35v94l-156 -36v69l156 37v223h108v-197l170 40v-71l-170 -40v-94l169 38v-71l-169 -39v-179q21 -5 40 -6.5t38 -1.5q96 0 153 41.5t81.5 117.5t24.5 182h108q0 -221 -86 -330.5t-281 -109.5q-42 0 -89 6t-97 17v239z" />
    </font>
</defs>
</svg>
